金钱世界/世上所有的财富/万恶金钱(港) All.the.Money.in.the.World.2017.BDRip.1080p.HDReactor 7.71 GiB

发布人: 匿名  
类型:电影  1080P电影
[2017][欧美][传记]
大小:7.70 GB
资源得分:暂无评分  / 该工友平均得分:  
 
 
 



◎译  名 金钱世界/世上所有的财富/万恶金钱(港)
◎片  名 All the Money in the World
◎年  代 2017
◎国  家 美国
◎类  别 传记/犯罪/剧情
◎语  言 俄语
◎字  幕 N/A
◎IMDb评分 7.0/10 from 16876 users
◎IMDB链接 http://www.imdb.com/title/tt5294550
◎文件格式 x264 + AC3
◎视频尺寸 1920x800
◎文件大小 7.71 GiB
◎片  长 2 h 14 min
◎导  演 雷德利·斯科特 Ridley Scott
◎主  演 米歇尔·威廉姆斯 Michelle Williams
         克里斯托弗·普卢默 Christopher Plummer
         马克·沃尔伯格 Mark Wahlberg
         查理·普拉默 Charlie Plummer
         罗曼·杜里斯 Romain Duris
         蒂莫西·赫顿 Timothy Hutton
         斯塔西·马汀 Stacy Martin
         查理·肖特韦尔 Charlie Shotwell
         安德鲁·巴肯 Andrew Buchan
         马克·莱昂纳蒂 Marco Leonardi
         朱塞佩·博尼法蒂 Giuseppe Bonifati
         尼可拉斯·瓦波里蒂斯 Nicolas Vaporidis
         安德里亚·皮耶迪蒙特·博迪尼 Andrea Piedimonte Bodini
         古列尔莫·法维拉 Guglielmo Favilla
         尼古拉·迪奇欧 Nicola Di Chio
         阿黛尔·蒂兰特 Adele Tirante
         亚历山德拉·罗卡 Alessandra Roca
         弗兰切斯卡·茵奥迪 Francesca Inaudi
         丹尼尔·高斯林 Daniel Gosling
         乔纳森·阿里斯 Jonathan Aris

◎简  介

  电影《金钱世界》改编自一起曾轰动世界的豪门绑架事件:世界首富保罗·盖蒂(克里斯托弗·普卢默饰)之孙遭遇黑帮绑架,绑匪向其母盖尔(米歇尔·威廉姆斯饰)索要1700万美元赎金,已经与丈夫离婚的盖尔无力支付这笔高昂的赎金,只能向盖蒂家族求救,但富可敌国却无比吝啬的老盖蒂却拒绝为孙子(查理·普拉默饰)支付赎金,拿不到钱的绑匪丧心病狂的割下了人质的耳朵邮寄给盖蒂家族,心碎的盖尔在前CIA特工弗莱彻·蔡斯(马克·沃尔伯格饰)的协助下,试图撼动这一僵局,解救自己的儿子…

获奖记录

奥斯卡金像奖(2018;第90届)
提名
·奥斯卡奖-最佳男配角克里斯托弗·普卢默 Christopher Plummer  

美国金球奖(2018;第75届)
提名
·电影类-最佳男配角克里斯托弗·普卢默 Christopher Plummer  
·电影类-最佳导演雷德利·斯科特 Ridley Scott  
·电影类-剧情类最佳女主角米歇尔·威廉姆斯 Michelle Williams

  1. Формат : Matroska
  2. Версия формата : Version 2
  3. Размер файла : 7,71 Гбайт
  4. Продолжительность : 2 ч. 12 м.
  5. Общий поток : 8315 Кбит/сек
  6. Название фильма : ~V ad~
  7. Дата кодирования : UTC 2018-03-29 22:53:54
  8. Программа кодирования : mkvmerge v6.5.0 ('Isn't she lovely') built on Oct 20 2013 12:50:05
  9. Библиотека кодирования : libebml v1.3.0 + libmatroska v1.4.1
  10. Обложка : Yes
  11. Attachments : cover.jpg
  12.  
  13. Видео
  14. Идентификатор : 1
  15. Формат : AVC
  16. Формат/Информация : Advanced Video Codec
  17. Профиль формата : [email protected]
  18. Настройки формата : CABAC / 5 Ref Frames
  19. Параметр CABAC формата : Да
  20. Параметр RefFrames формата : 5 кадров
  21. Идентификатор кодека : V_MPEG4/ISO/AVC
  22. Продолжительность : 2 ч. 12 м.
  23. Битрейт : 7488 Кбит/сек
  24. Ширина : 1920 пикселей
  25. Высота : 800 пикселей
  26. Соотношение сторон : 2,40:1
  27. Режим частоты кадров : Постоянный
  28. Частота кадров : 23,976 (24000/1001) кадра/сек
  29. Цветовое пространство : YUV
  30. Субдискретизация насыщенности : 4:2:0
  31. Битовая глубина : 8 бит
  32. Тип развёртки : Прогрессивная
  33. Бит/(Пиксели*Кадры) : 0.203
  34. Размер потока : 6,78 Гбайт (88%)
  35. Заголовок : ~V~
  36. Библиотека кодирования : x264 core 155 r2901 7d0ff22
  37. Настройки программы : cabac=1 / ref=5 / deblock=1:-3:-3 / analyse=0x3:0x133 / me=umh / subme=11 / psy=1 / psy_rd=1.00:0.00 / mixed_ref=1 / me_range=32 / chroma_me=1 / trellis=2 / 8x8dct=1 / cqm=0 / deadzone=21,11 / fast_pskip=0 / chroma_qp_offset=-2 / threads=12 / lookahead_threads=1 / sliced_threads=0 / nr=0 / decimate=0 / interlaced=0 / bluray_compat=0 / constrained_intra=0 / bframes=10 / b_pyramid=2 / b_adapt=2 / b_bias=0 / direct=3 / weightb=1 / open_gop=0 / weightp=2 / keyint=240 / keyint_min=23 / scenecut=40 / intra_refresh=0 / rc=2pass / mbtree=0 / bitrate=7488 / ratetol=1.0 / qcomp=0.70 / qpmin=0 / qpmax=69 / qpstep=4 / cplxblur=20.0 / qblur=0.5 / ip_ratio=1.28 / pb_ratio=1.30 / aq=3:0.70
  38. Язык : Английский
  39. Default : Да
  40. Forced : Нет
  41.  
  42. Аудио #1
  43. Идентификатор : 2
  44. Формат : AC-3
  45. Формат/Информация : Audio Coding 3
  46. Идентификатор кодека : A_AC3
  47. Продолжительность : 2 ч. 12 м.
  48. Вид битрейта : Постоянный
  49. Битрейт : 384 Кбит/сек
  50. Каналы : 6 каналов
  51. Расположение каналов : Front: L C R, Side: L R, LFE
  52. Частота : 48,0 КГц
  53. Частота кадров : 31,250 кадров/сек (1536 SPF)
  54. Битовая глубина : 16 бит
  55. Метод сжатия : С потерями
  56. Размер потока : 364 Мбайт (5%)
  57. Заголовок : Dub
  58. Язык : Русский
  59. Service Kind : Complete Main
  60. Default : Да
  61. Forced : Нет
  62.  
  63. Аудио #2
  64. Идентификатор : 3
  65. Формат : AC-3
  66. Формат/Информация : Audio Coding 3
  67. Идентификатор кодека : A_AC3
  68. Продолжительность : 2 ч. 12 м.
  69. Вид битрейта : Постоянный
  70. Битрейт : 448 Кбит/сек
  71. Каналы : 6 каналов
  72. Расположение каналов : Front: L C R, Side: L R, LFE
  73. Частота : 48,0 КГц
  74. Частота кадров : 31,250 кадров/сек (1536 SPF)
  75. Битовая глубина : 16 бит
  76. Метод сжатия : С потерями
  77. Размер потока : 425 Мбайт (5%)
  78. Язык : Английский
  79. Service Kind : Complete Main
  80. Default : Нет
  81. Forced : Нет
  82.  
  83. Текст #1
  84. Идентификатор : 4
  85. Формат : UTF-8
  86. Идентификатор кодека : S_TEXT/UTF8
  87. Идентификатор кодека/Информация : UTF-8 Plain Text
  88. Заголовок : Full
  89. Язык : Русский
  90. Default : Нет
  91. Forced : Нет
  92.  
  93. Текст #2
  94. Идентификатор : 5
  95. Формат : UTF-8
  96. Идентификатор кодека : S_TEXT/UTF8
  97. Идентификатор кодека/Информация : UTF-8 Plain Text
  98. Заголовок : Full
  99. Язык : Английский
  100. Default : Нет
  101. Forced : Нет
  102.  
  103. Меню
  104. 00:00:00.000 : en:Chapter 1
  105. 00:10:55.113 : en:Chapter 2
  106. 00:19:10.358 : en:Chapter 3
  107. 00:30:35.500 : en:Chapter 4
  108. 00:39:27.907 : en:Chapter 5
  109. 00:48:36.664 : en:Chapter 6
  110. 00:55:26.156 : en:Chapter 7
  111. 01:05:59.164 : en:Chapter 8
  112. 01:15:27.606 : en:Chapter 9
  113. 01:24:42.369 : en:Chapter 10
  114. 01:28:20.587 : en:Chapter 11
  115. 01:34:55.064 : en:Chapter 12
  116. 01:42:14.170 : en:Chapter 13
  117. 01:48:11.485 : en:Chapter 14
  118. 01:56:07.169 : en:Chapter 15
  119. 02:03:08.381 : en:Chapter 16
复制代码




部分内容需要登录后才能查看。登录












电影,电视剧,字幕下载软件地址:http://www.banyungong.org/magnetm/706d600a73684616a3d4d3145dc4ec04.html




还没有人发表评论哦~您要说点什么吗?

快捷评论:

 
 登录后可评论资源 ^0^ 点我登录