阴风阵阵 Suspiria.2018.1080p.WEB-DL.DD5.1.H264-FGT 5.49GB

发布人: Sumbrella  高级工友
类型:电影  1080P电影
[2018][欧美][恐怖]
大小:5.49 GB
资源得分:暂无评分  / 该工友平均得分:9.4  
 
 
 







◎译  名 阴风阵阵 /美版阴风阵阵 / 窒息

◎片  名 Suspiria

◎年  代 2018

◎产  地 美国 / 意大利

◎类  别 惊悚 / 恐怖

◎语  言 英语

◎片  长 152分钟

◎上映日期 2018-09-01(威尼斯电影节) / 2018-11-02(美国)

◎IMDb评分 7.3/10 from 11,795 users

◎IMDb链接 https://www.imdb.com/title/tt1034415/

◎导  演 卢卡·瓜达尼诺 Luca Guadagnino

◎编  剧 达里亚·尼科洛迪 Daria Nicolodi/ 大卫·凯根内奇 David Kajganich / 达里奥·阿基多 Dario Argento

◎主  演 达科塔·约翰逊 / 蒂尔达·斯文顿 / 科洛·莫瑞兹 / 米娅·高斯 / 杰西卡·哈珀 / 西尔维·泰斯蒂 / 安吉拉·温科勒 / 玛高莎·贝拉 / 英格丽·卡文

◎简  介

《我是爱》(I Am Love)和《更大的水花》(A Bigger Splash)的意大利导演卢卡·格达戈尼诺(Luca Guadagnino)即将翻拍1977年达里奥·阿金图(Dario Argento)的意大利经典恐怖片《阴风阵阵》(Suspiria),达科塔·约翰森(Dakota Johnson)和蒂尔达·斯温顿(Tilda Swinton)将担任翻拍版的主演。

  1977年的《阴风阵阵》讲述了美国女孩苏茜来到德国一所历史悠久的芭蕾舞学院进修,结果在学校里遇到了一系列神秘事件、女学生接连遭到血腥残忍的杀害……经过寻访,苏茜发现这所学校原来是一群女巫的大本营,而自己将是下一个受害者!最终,苏茜杀死了黑魔女,逃出了魔窟。
  
据悉,卢卡·格达戈尼诺翻拍的版本将忠实于原作,故事仍设定在1977年的柏林,而为该片作曲的将是美国当代著名极简主义音乐家约翰·亚当斯(John Adams),他曾为卢卡·格达戈尼诺的《我是爱》创作过电影音乐。
  
虽然没有正式公布,但是显然达科塔·约翰森(Dakota Johnson)将在这部片子里饰演女主角苏茜,而蒂尔达·斯温顿(Tilda Swinton)则将饰演芭蕾舞学校的校长。

◎获奖情况

第75届威尼斯电影节 主竞赛单元 金狮奖 (提名) 卢卡·瓜达尼诺

第24届美国评论家选择电影奖 最佳科幻/恐怖片(提名)

第34届美国独立精神奖 最佳摄影(提名)

Suspiria.2018.1080p.WEB-DL.DD5.1.H264-FGT

Video
ID : 1
Format : AVC
Format/Info : Advanced Video Codec
Format profile : [email protected]
Format settings : CABAC / 4 Ref Frames
Format settings, CABAC : Yes
Format settings, ReFrames : 4 frames
Codec ID : V_MPEG4/ISO/AVC
Duration : 2 h 26 min
Bit rate : 4 989 kb/s
Width : 1 916 pixels
Height : 1 036 pixels
Display aspect ratio : 1.85:1
Frame rate mode : Constant
Frame rate : 25.000 FPS
Color space : YUV
Chroma subsampling : 4:2:0
Bit depth : 8 bits
Scan type : Progressive
Bits/(Pixel*Frame) : 0.101
Stream size : 5.10 GiB (93%)
Title : Suspiria.2018.1080p.WEB-DL.DD5.1.H264-FGT
Language : English
Default : Yes
Forced : No
Color range : Limited
Color primaries : BT.709
Transfer characteristics : BT.709
Matrix coefficients : BT.709

Audio
ID : 2
Format : AC-3
Format/Info : Audio Coding 3
Commercial name : Dolby Digital
Codec ID : A_AC3
Duration : 2 h 26 min
Bit rate mode : Constant
Bit rate : 384 kb/s
Channel(s) : 6 channels
Channel layout : L R C LFE Ls Rs
Sampling rate : 48.0 kHz
Frame rate : 31.250 FPS (1536 SPF)
Bit depth : 16 bits
Compression mode : Lossy
Stream size : 402 MiB (7%)
Title : Suspiria.2018.1080p.WEB-DL.DD5.1.H264-FGT
Language : English
Service kind : Complete Main
Default : No
Forced : No

Menu
00:00:00.000 : en:1
00:28:48.000 : en:2
01:13:09.000 : en:3
01:49:37.000 : en:4
02:21:40.000 : en:5




部分内容需要登录后才能查看。登录
















还没有人发表评论哦~您要说点什么吗?

快捷评论:

 
 登录后可评论资源 ^0^ 点我登录