你给的仇恨 The.Hate.U.Give.2018.720p.BluRay.x264-BLOW 6.61GB

发布人: Sumbrella  高级工友
类型:电影  720P电影
[2018][欧美][剧情]
大小:6.61 GB
资源得分:暂无评分  / 该工友平均得分:9.4  
 
 
 





◎译  名 你给的仇恨/ 黑暗中的星光 / 你的敌意

◎片  名 The Hate U Give

◎年  代 2018

◎产  地 美国

◎类  别 剧情 / 犯罪

◎语  言 英语

◎上映日期 2018-09-07(多伦多电影节) / 2018-10-19(美国)

◎IMDb评分 7.0/10 from 8,129 users

◎IMDb链接 https://www.imdb.com/title/tt5580266/

◎片  长 133分钟

◎导  演 小乔治·提尔曼

◎编  剧 奥黛丽·威尔斯 / 安吉·托马斯

◎主  演 阿曼德拉·斯坦伯格 / 雷吉娜·赫尔 / 罗素·霍恩斯比 / 安东尼·麦凯 / K·J·阿帕 / 伊萨·雷 / 科曼 / 阿尔吉·史密斯 / 塞布丽娜·卡彭特 / 多米尼克·菲什巴克 / 拉马尔·约翰逊 / 梅根·劳利斯      

◎简  介

   基于Angela Thomas所著同名小说,聚焦种族问题和警察暴行。16岁黑人女主角Starr Carter某天晚上去参加派对,遇到了儿时最好的朋友Khalil,派对之后后者载她回家,两人在路上被一个警察拦下,Khalil被迫下车,随后警察朝徒手的Khalil开枪。此事很快成为全国头条,Khalil被描述为“暴徒、毒贩”,而警察似乎并没有多大兴趣展开调查。 一群抗议者走上街头,将Starr居住的街区变为了战区,大家都尝试弄清楚到底发生了什么,而唯一知道真相的只有Starr,她做了很多采访试图还Khalil清白,她说的话将决定警察是进监狱还是被宣告无罪。

◎获奖情况

第24届美国评论家选择电影奖 最佳青少年演员(提名) 阿曼德拉·斯坦伯格

第22届好莱坞电影奖 年度突破女演员 阿曼德拉·斯坦伯格

第17届华盛顿影评人协会奖 最佳青少年表演(提名) 阿曼德拉·斯坦伯格

The.Hate.U.Give.2018.720p.BluRay.x264-BLOW

Video
ID : 1
Format : AVC
Format/Info : Advanced Video Codec
Format profile : [email protected]
Format settings : CABAC / 5 Ref Frames
Format settings, CABAC : Yes
Format settings, ReFrames : 5 frames
Codec ID : V_MPEG4/ISO/AVC
Duration : 2 h 13 min
Bit rate : 5 535 kb/s
Width : 1 280 pixels
Height : 536 pixels
Display aspect ratio : 2.40:1
Frame rate mode : Constant
Frame rate : 23.976 (24000/1001) FPS
Color space : YUV
Chroma subsampling : 4:2:0
Bit depth : 8 bits
Scan type : Progressive
Bits/(Pixel*Frame) : 0.336
Stream size : 5.02 GiB (77%)
Writing library : x264 core 155 r2901 7d0ff22
Encoding settings : cabac=1 / ref=5 / deblock=1:0:0 / analyse=0x3:0x113 / me=umh / subme=8 / psy=1 / psy_rd=1.00:0.00 / mixed_ref=1 / me_range=16 / chroma_me=1 / trellis=1 / 8x8dct=1 / cqm=0 / deadzone=21,11 / fast_pskip=1 / chroma_qp_offset=-2 / threads=24 / lookahead_threads=4 / sliced_threads=0 / nr=0 / decimate=1 / interlaced=0 / bluray_compat=0 / constrained_intra=0 / bframes=3 / b_pyramid=2 / b_adapt=1 / b_bias=0 / direct=3 / weightb=1 / open_gop=0 / weightp=2 / keyint=240 / keyint_min=24 / scenecut=40 / intra_refresh=0 / rc_lookahead=50 / rc=2pass / mbtree=1 / bitrate=5535 / ratetol=1.0 / qcomp=0.60 / qpmin=0 / qpmax=69 / qpstep=4 / cplxblur=20.0 / qblur=0.5 / ip_ratio=1.40 / aq=1:1.00
Language : English
Default : Yes
Forced : No

Audio
ID : 2
Format : DTS
Format/Info : Digital Theater Systems
Codec ID : A_DTS
Duration : 2 h 13 min
Bit rate mode : Constant
Bit rate : 1 509 kb/s
Channel(s) : 6 channels
Channel layout : C L R Ls Rs LFE
Sampling rate : 48.0 kHz
Frame rate : 93.750 FPS (512 SPF)
Bit depth : 24 bits
Compression mode : Lossy
Stream size : 1.40 GiB (21%)
Language : English
Default : Yes
Forced : No

Text #1
ID : 3
Format : UTF-8
Codec ID : S_TEXT/UTF8
Codec ID/Info : UTF-8 Plain Text
Title : English regular
Language : English
Default : No
Forced : No

Text #2
ID : 4
Format : UTF-8
Codec ID : S_TEXT/UTF8
Codec ID/Info : UTF-8 Plain Text
Title : English sdh
Language : English
Default : No
Forced : No

Menu
00:00:00.000 : en:00:00:00.000
00:03:55.777 : en:00:03:55.777
00:08:18.081 : en:00:08:18.081
00:13:14.252 : en:00:13:14.252
00:19:32.129 : en:00:19:32.129
00:24:48.320 : en:00:24:48.320
00:29:34.314 : en:00:29:34.314
00:34:54.217 : en:00:34:54.217
00:40:09.532 : en:00:40:09.532
00:45:05.411 : en:00:45:05.411
00:50:09.215 : en:00:50:09.215
00:58:27.587 : en:00:58:27.587
01:03:58.376 : en:01:03:58.376
01:10:00.988 : en:01:10:00.988
01:14:51.278 : en:01:14:51.278
01:19:50.786 : en:01:19:50.786
01:27:09.599 : en:01:27:09.599
01:32:11.693 : en:01:32:11.693
01:37:36.225 : en:01:37:36.225
01:43:59.066 : en:01:43:59.066
01:49:39.156 : en:01:49:39.156
01:56:20.432 : en:01:56:20.432
01:58:00.156 : en:01:58:00.156
02:03:50.965 : en:02:03:50.965




部分内容需要登录后才能查看。登录
















还没有人发表评论哦~您要说点什么吗?

快捷评论:

 
 登录后可评论资源 ^0^ 点我登录