[BT下载]埃内斯托[内封中字]Ernesto.2017.1080p.BluRay.x264.DTS-WiKi 10.9GB

发布人: iRobot  银河系工友
类型:电影  1080P电影
[2017][日本][剧情]
大小:10.98 GB
资源得分:暂无评分  / 该工友平均得分:9.2  
 
 
 

Ernesto.2017.1080p.BluRay.x264.DTS-WiKi

◎译  名 埃内斯托

◎片  名 エルネスト

◎年  代 2017

◎产  地 日本/古巴

◎类  别 剧情/传记/历史

◎语  言 日语

◎上映日期 2017-10-06(日本)

◎IMDb评分  6.0/10 from 11 users

◎IMDb链接  http://www.imdb.com/title/tt5937210/

◎豆瓣评分 /10 from 0 users

◎豆瓣链接 https://movie.douban.com/subject/26849117/

◎片  长 124分钟

◎导  演 阪本顺治 Junji Sakamoto

◎主  演 小田切让 Jô Odagiri

      永山绚斗 Kento Nagayama

      Alexis Díaz de Villegas

      Juan M. Valero


◎简  介


  故事以参加古巴革命英雄切·格瓦拉的游击部队,并被切·格瓦拉命名为“埃内斯托”的日本血统玻利维亚人埃内斯托·弗莱迪的一生故事。作为日系玻利维亚人而出生于1941年10月的埃内斯托·前村·弗莱迪出生于富裕家庭,少年时期的他看到贫富差距巨大的社会中不少贫穷人人生时,经常向贫穷朋友送上关心。为了人类而决定从医的他在古巴医学院留学时认识了切·格瓦拉,并因此改变了他的人生。随后,听闻祖国玻利维亚军事政变,埃内斯托·弗莱迪参加了切·格瓦拉的游击队,决心为国民而奉献生命。


Video
ID                                       : 1
Format                                   : AVC
Format/Info                              : Advanced Video Codec
Format profile                           : [email protected]
Format settings                          : CABAC / 4 Ref Frames
Format settings, CABAC                   : Yes
Format settings, ReFrames                : 4 frames
Codec ID                                 : V_MPEG4/ISO/AVC
Duration                                 : 2 h 4 min
Bit rate                                 : 11.1 Mb/s
Width                                    : 1 920 pixels
Height                                   : 1 038 pixels
Display aspect ratio                     : 1.85:1
Frame rate mode                          : Constant
Frame rate                               : 23.976 (24000/1001) FPS
Color space                              : YUV
Chroma subsampling                       : 4:2:0
Bit depth                                : 8 bits
Scan type                                : Progressive
Bits/(Pixel*Frame)                       : 0.233
Stream size                              : 9.67 GiB (88%)
Writing library                          : x264 core 129 r2245+704+36 8e61944 tMod+MixAQ [[email protected]:2:0 X86_64]
Encoding settings                        : cabac=1 / ref=4 / deblock=1:-3:-3 / analyse=0x3:0x133 / me=umh / subme=11 / psy=1 / fade_compensate=0.00 / psy_rd=1.05:0.10 / mixed_ref=1 / me_range=64 / chroma_me=1 / trellis=2 / 8x8dct=1 / cqm=0 / deadzone=21,11 / fast_pskip=0 / chroma_qp_offset=-3 / threads=18 / lookahead_threads=3 / sliced_threads=0 / nr=0 / decimate=0 / interlaced=0 / bluray_compat=0 / constrained_intra=0 / fgo=0 / bframes=10 / b_pyramid=2 / b_adapt=2 / b_bias=0 / direct=3 / weightb=1 / open_gop=0 / weightp=2 / keyint=250 / keyint_min=23 / scenecut=40 / intra_refresh=0 / rc=2pass / mbtree=0 / bitrate=11140 / ratetol=1.0 / qcomp=0.70 / qpmin=0 / qpmax=69 / qpstep=4 / cplxblur=20.0 / qblur=0.5 / ip_ratio=1.40 / pb_ratio=1.30 / aq=1 / aq-strength=0.85 / aq-sensitivity=10.00 / aq-ifactor=1.00 / aq-pfactor=1.00 / aq-bfactor=1.00 / aq2=0
Language                                 : Japanese
Default                                  : Yes
Forced                                   : No

Audio
ID                                       : 2
Format                                   : DTS
Format/Info                              : Digital Theater Systems
Codec ID                                 : A_DTS
Duration                                 : 2 h 4 min
Bit rate mode                            : Constant
Bit rate                                 : 1 509 kb/s
Channel(s)                               : 6 channels
Channel positions                        : Front: L C R, Side: L R, LFE
Sampling rate                            : 48.0 kHz
Frame rate                               : 93.750 FPS (512 SPF)
Bit depth                                : 24 bits
Compression mode                         : Lossy
Stream size                              : 1.31 GiB (12%)
Language                                 : Japanese
Default                                  : Yes
Forced                                   : No

Text
ID                                       : 3
Format                                   : ASS
Codec ID                                 : S_TEXT/ASS
Codec ID/Info                            : Advanced Sub Station Alpha
Duration                                 : 2 h 0 min
Bit rate                                 : 72 b/s
Count of elements                        : 1283
Compression mode                         : Lossless
Stream size                              : 64.5 KiB (0%)
Language                                 : Chinese
Default                                  : Yes
Forced                                   : No

Menu
00:00:00.000                             : en:00:00:00.000
00:20:38.237                             : en:00:20:38.237
00:31:17.792                             : en:00:31:17.792
00:53:35.670                             : en:00:53:35.670
01:13:30.197                             : en:01:13:30.197
01:28:42.150                             : en:01:28:42.150
01:42:25.472                             : en:01:42:25.472
01:54:24.482                             : en:01:54:24.482
02:04:24.457                             : en:02:04:24.457




部分内容需要登录后才能查看。登录












我是机器人,给我留言也不会回复,谢谢.......




还没有人发表评论哦~您要说点什么吗?

快捷评论:

 
 登录后可评论资源 ^0^ 点我登录