复仇者联盟3:无限战争 Avengers.Infinity.War.2018.720p.BluRay.x264-SPARKS 6.59GB

发布人: iRobot  银河系工友
类型:电影  720P电影
[2018][欧美][科幻]
大小:6.59 GB
资源得分:9.0  / 该工友平均得分:9.2  
 
 
 

 

◎译  名 复仇者联盟3:无限战争/复仇者联盟3:无限之战(港)/复仇者联盟:无限之战(台)/复仇者联盟3:无尽之战/复联3/妇联3(豆友译名)/复仇者联盟3:灭霸传(豆友译名)

◎片  名 Avengers: Infinity War

◎年  代 2018

◎产  地 美国

◎类  别 动作/科幻/奇幻/冒险

◎语  言 英语

◎上映日期 2018-04-23(加州首映)/2018-04-27(美国)/2018-05-11(中国大陆)

◎IMDb评分  8.7/10 from 408,337 users

◎IMDb链接  http://www.imdb.com/title/tt4154756/

◎豆瓣评分 8.2/10 from 339,250 users

◎豆瓣链接 https://movie.douban.com/subject/24773958/

◎片  长 150分钟

◎导  演 安东尼·卢素 Anthony Russo / 乔·卢素 Joe Russo

◎主  演 小罗伯特·唐尼 Robert Downey Jr.

      克里斯·海姆斯沃斯 Chris Hemsworth

      克里斯·埃文斯 Chris Evans

      马克·鲁弗洛 Mark Ruffalo

      乔什·布洛林 Josh Brolin

      佐伊·索尔达娜 Zoe Saldana

      本尼迪克特·康伯巴奇 Benedict Cumberbatch

      克里斯·普拉特 Chris Pratt

      汤姆·霍兰德 Tom Holland

      伊丽莎白·奥尔森 Elizabeth Olsen

      保罗·贝坦尼 Paul Bettany

      斯嘉丽·约翰逊 Scarlett Johansson

      查德维克·博斯曼 Chadwick Boseman

      塞巴斯蒂安·斯坦 Sebastian Stan

      唐·钱德尔 Don Cheadle

      汤姆·希德勒斯顿 Tom Hiddleston

      安东尼·麦凯 Anthony Mackie

      本尼迪克特·王 Benedict Wong

      戴夫·巴蒂斯塔 Dave Bautista

      布莱德利·库珀 Bradley Cooper

      范·迪塞尔 Vin Diesel

      凯伦·吉兰 Karen Gillan

      利蒂希娅·赖特 Letitia Wright

      庞·克莱门捷夫 Pom Klementieff

      凯莉·库恩 Carrie Coon

      汤姆-沃恩-劳勒 Tom Vaughan-Lawlor

      海登·瓦尔希 Hynden Walch

      迈克尔·詹姆斯·肖 Michael James Shaw

      泰瑞·诺塔里 Terry Notary

      本尼西奥·德尔·托罗 Benicio Del Toro

      彼特·丁拉基 Peter Dinklage

      罗斯·马昆德 Ross Marquand

      丹娜·奎里拉 Danai Gurira

      温斯顿·杜克 Winston Duke

      弗洛伦丝·卡松巴 Florence Kasumba

      塞缪尔·杰克逊 Samuel L. Jackson

      雅各布·巴特朗 Jacob Batalon

      斯坦·李 Stan Lee

 

◎简  介

 

  《复仇者联盟3:无限战争》是漫威电影宇宙10周年的历史性集结,将为影迷们带来史诗版的终极对决。面对灭霸突然发起的闪电袭击,复仇者联盟及其所有超级英雄盟友必须全力以赴,才能阻止他对全宇宙造成毁灭性的打击。

 

◎获奖情况

 

  第4届豆瓣电影年度榜单  (2017)

  最值得期待的外语电影

 

Video
ID : 1
Format : AVC
Format/Info : Advanced Video Codec
Format profile : [email protected]
Format settings : CABAC / 5 Ref Frames
Format settings, CABAC : Yes
Format settings, RefFrames : 5 frames
Codec ID : V_MPEG4/ISO/AVC
Duration : 2 h 29 min
Bit rate : 4 776 kb/s
Width : 1 280 pixels
Height : 536 pixels
Display aspect ratio : 2.40:1
Frame rate mode : Constant
Frame rate : 23.976 FPS
Color space : YUV
Chroma subsampling : 4:2:0
Bit depth : 8 bits
Scan type : Progressive
Bits/(Pixel*Frame) : 0.290
Stream size : 4.98 GiB (76%)
Writing library : x264 core 155 r2901 7d0ff22
Encoding settings : cabac=1 / ref=5 / deblock=1:0:0 / analyse=0x3:0x133 / me=umh / subme=7 / psy=1 / psy_rd=1.00:0.00 / mixed_ref=1 / me_range=16 / chroma_me=1 / trellis=1 / 8x8dct=1 / cqm=0 / deadzone=21,11 / fast_pskip=0 / chroma_qp_offset=-2 / threads=17 / lookahead_threads=2 / sliced_threads=0 / nr=0 / decimate=1 / interlaced=0 / bluray_compat=0 / constrained_intra=0 / bframes=3 / b_pyramid=2 / b_adapt=1 / b_bias=0 / direct=1 / weightb=1 / open_gop=0 / weightp=2 / keyint=250 / keyint_min=23 / scenecut=40 / intra_refresh=0 / rc_lookahead=40 / rc=2pass / mbtree=1 / bitrate=4776 / ratetol=1.0 / qcomp=0.60 / qpmin=0 / qpmax=69 / qpstep=4 / cplxblur=20.0 / qblur=0.5 / ip_ratio=1.40 / aq=1:1.00
Language : English
Default : Yes
Forced : No

Audio
ID : 2
Format : DTS
Format/Info : Digital Theater Systems
Mode : 16
Format settings, Endianness : Big
Codec ID : A_DTS
Duration : 2 h 29 min
Bit rate mode : Constant
Bit rate : 1 509 kb/s
Channel(s) : 6 channels
Channel positions : Front: L C R, Side: L R, LFE
Sampling rate : 48.0 kHz
Frame rate : 93.750 FPS (512 SPF)
Bit depth : 24 bits
Compression mode : Lossy
Stream size : 1.57 GiB (24%)
Language : English
Default : Yes
Forced : No

Menu
00:00:00.000 : en:00:00:00.000
00:11:28.730 : en:00:11:28.730
00:18:13.884 : en:00:18:13.884
00:27:23.809 : en:00:27:23.809
00:35:48.813 : en:00:35:48.813
00:42:23.541 : en:00:42:23.541
00:54:12.875 : en:00:54:12.875
00:59:36.740 : en:00:59:36.740
01:05:07.153 : en:01:05:07.153
01:10:53.666 : en:01:10:53.666
01:17:06.956 : en:01:17:06.956
01:24:14.758 : en:01:24:14.758
01:31:08.004 : en:01:31:08.004
01:42:00.406 : en:01:42:00.406
01:45:57.810 : en:01:45:57.810
01:53:04.069 : en:01:53:04.069
01:58:52.917 : en:01:58:52.917
02:03:58.181 : en:02:03:58.181
02:11:13.282 : en:02:11:13.282
02:17:31.285 : en:02:17:31.285

 


部分内容需要登录后才能查看。登录












我是机器人,给我留言也不会回复,谢谢.......




回复人内容
kuki1984 (准工友) 这是高清版的吗?
为你写诗 (准工友) 感谢楼主分享
benben0525 (准工友) 查看谢谢楼主分享!
sky161 (准工友) 看看怎么下载

快捷评论:

 
 登录后可评论资源 ^0^ 点我登录