2019北京卫视环球跨年冰雪盛典演唱会[HD1080.MPEG-4]6.06GB[百度网盘]

发布人: 匿名  
类型:综艺  大陆综艺
[2018][晚会]
大小:6.06 GB
资源得分:暂无评分  / 该工友平均得分:  
 
 
 

北京卫视2019跨年演唱会
别名: 北京卫视2019跨年演唱会;北京卫视跨年;北京跨年;2019BTV跨年冰雪盛典;2019环球跨年冰雪盛典;北京跨年演唱会;2019北京卫视跨年;2019北京跨年;2019北京跨年演唱会;BTV跨年
地区: 中国大陆
首播时间: 2018-12-31
电视台: 北京卫视
更新时间: 暂无
类型: 盛会
简介: 2019北京卫视环球跨年冰雪盛典将于2018年12月31日晚爆燃出击,天地为景,冰雪欢歌。关晓彤、武大靖、ONER、许魏洲等艺人倾情加盟。三大主场,八地联动!打造国内首档实景跨年秀!天涯共此时,冰雪新篇章!助力冬奥,燃情跨年!

 














Complete name                  : 北京卫视2019跨年演唱会-国语1080P.mp4
Format                         : MPEG-4
Format profile                 : Base Media
Codec ID                       : isom (isom/iso2/avc1/mp41)
File size                      : 6.07 GiB
Duration                       : 4 h 45 min
Overall bit rate               : 3 042 kb/s
Writing application            : Lavf57.41.100

Video
ID                             : 1
Format                         : AVC
Format/Info                    : Advanced Video Codec
Format profile                 : [email protected]
Format settings                : CABAC / 3 Ref Frames
Format settings, CABAC         : Yes
Format settings, ReFrames      : 3 frames
Codec ID                       : avc1
Codec ID/Info                  : Advanced Video Coding
Duration                       : 4 h 45 min
Bit rate                       : 2 972 kb/s
Width                          : 1 920 pixels
Height                         : 1 080 pixels
Display aspect ratio           : 16:9
Frame rate mode                : Constant
Frame rate                     : 25.000 FPS
Color space                    : YUV
Chroma subsampling             : 4:2:0
Bit depth                      : 8 bits
Scan type                      : Progressive
Bits/(Pixel*Frame)             : 0.057
Stream size                    : 5.93 GiB (98%)
Writing library                : qiyi.com vtc-test
Color range                    : Limited
Color primaries                : BT.709
Transfer characteristics       : BT.709
Matrix coefficients            : BT.709
Codec configuration box        : avcC

Audio
ID                             : 2
Format                         : AAC LC SBR
Format/Info                    : Advanced Audio Codec Low Complexity with Spectral Band Replication
Commercial name                : HE-AAC
Format settings                : Explicit
Codec ID                       : mp4a-40-2
Duration                       : 4 h 45 min
Bit rate mode                  : Constant
Bit rate                       : 62.9 kb/s
Channel(s)                     : 2 channels
Channel layout                 : L R
Sampling rate                  : 44.1 kHz
Frame rate                     : 21.533 FPS (2048 SPF)
Compression mode               : Lossy
Stream size                    : 129 MiB (2%)
Default                        : Yes
Alternate group                : 1


部分内容需要登录后才能查看。登录












电影,电视剧,字幕下载软件地址:http://www.banyungong.org/magnetm/706d600a73684616a3d4d3145dc4ec04.html




回复人内容
konglingi (准工友) 感谢楼主分享!
guyexing (准工友) 有没有更清晰的
guyexing (准工友) 有没有更清晰的
虚室生白 (准工友) 非常感谢分享!!
盘石0822 (准工友) 感谢楼主分享!
a2193371 (准工友) 感谢楼主分享!

快捷评论:

 
 登录后可评论资源 ^0^ 点我登录