行星地球/地球脉动 第二季 Planet Earth II S01 BluRay 1080p x264 DTS-ROVERS 26G

发布人: 匿名  
类型:其它  纪录片
[2016]
大小:26.24 GB
资源得分:10.0  / 该工友平均得分:  
 
 
 

◎译  名 行星地球/地球脉动 第2季
◎片  名 Planet Earth II
◎年  代 2016
◎国  家 英国
◎类  别 纪录片
◎语  言 英语
◎IMDB评分  10/10  (145 votes)
◎IMDB链接  http://www.imdb.com/title/tt5491994
◎片  长 每集大约1小时(共6集)
◎导  演 艾雷斯泰·法瑟吉尔 Alastair Fothergill
◎编  剧 大卫·爱登堡 David Attenborough
◎主  演 大卫·爱登堡 David Attenborough

◎简  介

  据外媒The Atlantic 报道,《地球脉动2》将在今年晚些时候正式播出,并继续由英国生物学家David Attenborough担任旁白。
  “在2006年播出时,首次全程采用高清摄像机拍摄的《地球脉动》是当时BBC摄制成本最高的一部纪录片。《地球脉动2》将运用同样的前瞻性思维,在过去三年中我们采用超高清4K摄影机拍摄,同时使用了无人机和远程控制拍摄技术。 《地球脉动2》播出后极有可能成为4K电视机的助推器。”
  据悉,《地球脉动》第二季将分为6个系列片。

 

  1. Video
  2. ID                                       : 1
  3. Format                                   : AVC
  4. Format/Info                              : Advanced Video Codec
  5. Format profile                           : [email protected]
  6. Format settings, CABAC                   : Yes
  7. Format settings, ReFrames                : 5 frames
  8. Codec ID                                 : V_MPEG4/ISO/AVC
  9. Duration                                 : 58mn 10s
  10. Bit rate                                 : 4 999 Kbps
  11. Width                                    : 1 280 pixels
  12. Height                                   : 720 pixels
  13. Display aspect ratio                     : 16:9
  14. Frame rate mode                          : Constant
  15. Frame rate                               : 25.000 fps
  16. Color space                              : YUV
  17. Chroma subsampling                       : 4:2:0
  18. Bit depth                                : 8 bits
  19. Scan type                                : Progressive
  20. Bits/(Pixel*Frame)                       : 0.217
  21. Stream size                              : 2.03 GiB (77%)
  22. Writing library                          : x264 core 148 r2705 3f5ed56
  23. Encoding settings                        : cabac=1 / ref=5 / deblock=1:0:0 / analyse=0x3:0x133 / me=umh / subme=7 / psy=1 / psy_rd=1.00:0.00 / mixed_ref=1 / me_range=16 / chroma_me=1 / trellis=1 / 8x8dct=1 / cqm=0 / deadzone=21,11 / fast_pskip=0 / chroma_qp_offset=-2 / threads=22 / lookahead_threads=3 / sliced_threads=0 / nr=0 / decimate=1 / interlaced=0 / bluray_compat=0 / constrained_intra=0 / bframes=3 / b_pyramid=2 / b_adapt=1 / b_bias=0 / direct=1 / weightb=1 / open_gop=0 / weightp=2 / keyint=250 / keyint_min=25 / scenecut=40 / intra_refresh=0 / rc_lookahead=40 / rc=2pass / mbtree=1 / bitrate=4999 / ratetol=1.0 / qcomp=0.60 / qpmin=0 / qpmax=69 / qpstep=4 / cplxblur=20.0 / qblur=0.5 / ip_ratio=1.40 / aq=1:1.00
  24. Language                                 : English
  25. Default                                  : Yes
  26. Forced                                   : No
  27.  
  28. Audio
  29. ID                                       : 2
  30. Format                                   : DTS
  31. Format/Info                              : Digital Theater Systems
  32. Mode                                     : 16
  33. Format settings, Endianness              : Big
  34. Codec ID                                 : A_DTS
  35. Duration                                 : 58mn 10s
  36. Bit rate mode                            : Constant
  37. Bit rate                                 : 1 509 Kbps
  38. Channel(s)                               : 6 channels
  39. Channel positions                        : Front: L C R, Side: L R, LFE
  40. Sampling rate                            : 48.0 KHz
  41. Frame rate                               : 93.750 fps (512 spf)
  42. Bit depth                                : 24 bits
  43. Compression mode                         : Lossy
  44. Stream size                              : 628 MiB (23%)
  45. Language                                 : English
  46. Default                                  : Yes
  47. Forced                                   : No

部分内容需要登录后才能查看。登录












电影,电视剧,字幕下载软件地址:http://www.banyungong.org/magnetm/706d600a73684616a3d4d3145dc4ec04.html




回复人内容
wincsc (准工友) 文件好大啊,有没有压缩版的。。。
antaike (准工友) 第一季有,等待第二季
yahoo402 (准工友) 本来以为是第二季第一集,结果还是合集。6集全。不如下52G的版本。更好点
178745024 (准工友) 好大好大,这个好还是52G好
zhaojunjie33 (准工友) 感谢楼主分享

快捷评论:

 
 登录后可评论资源 ^0^ 点我登录