2019湖南卫视跨年演唱会综艺-[HD1080.MPEG-4] 5.6GB[百度网盘]

发布人: 匿名  
类型:综艺  大陆综艺
[2018][晚会]
大小:5.6 GB
资源得分:10.0  / 该工友平均得分:  
 
 
 

2019湖南卫视跨年演唱会综艺
地 区: 内地 电视台: 湖南卫视 语 言: 普通话
首播时间: 2018-12-31 更新期数: 2018-12-31
简 介: 2019湖南卫视跨年演唱会,12月31日19:30 腾讯视频 全程直播。
TFBOYS
王源
王俊凯
易烊千玺
朱一龙
杨紫
华晨宇
韩红













Format                         : MPEG-4
Format profile                 : Base Media
Codec ID                       : isom (isom/iso2/avc1/mp41)
File size                      : 5.60 GiB
Duration                       : 4 h 26 min
Overall bit rate               : 3 006 kb/s
Writing application            : Lavf57.41.100


Video
ID                             : 1
Format                         : AVC
Format/Info                    : Advanced Video Codec
Format profile                 : [email protected]
Format settings                : CABAC / 3 Ref Frames
Format settings, CABAC         : Yes
Format settings, ReFrames      : 3 frames
Codec ID                       : avc1
Codec ID/Info                  : Advanced Video Coding
Duration                       : 4 h 26 min
Bit rate                       : 2 937 kb/s
Width                          : 1 920 pixels
Height                         : 1 080 pixels
Display aspect ratio           : 16:9
Frame rate mode                : Constant
Frame rate                     : 25.000 FPS
Color space                    : YUV
Chroma subsampling             : 4:2:0
Bit depth                      : 8 bits
Scan type                      : Progressive
Bits/(Pixel*Frame)             : 0.057
Stream size                    : 5.47 GiB (98%)
Writing library                : qiyi.com vtc-test
Color range                    : Limited
Color primaries                : BT.709
Transfer characteristics       : BT.709
Matrix coefficients            : BT.709
Codec configuration box        : avcC


Audio
ID                             : 2
Format                         : AAC LC SBR
Format/Info                    : Advanced Audio Codec Low Complexity with Spectral Band Replication
Commercial name                : HE-AAC
Format settings                : Explicit
Codec ID                       : mp4a-40-2
Duration                       : 4 h 26 min
Bit rate mode                  : Constant
Bit rate                       : 63.0 kb/s
Channel(s)                     : 2 channels
Channel layout                 : L R
Sampling rate                  : 44.1 kHz
Frame rate                     : 21.533 FPS (2048 SPF)
Compression mode               : Lossy
Stream size                    : 120 MiB (2%)
Default                        : Yes
Alternate group                : 1


部分内容需要登录后才能查看。登录












电影,电视剧,字幕下载软件地址:http://www.banyungong.org/magnetm/706d600a73684616a3d4d3145dc4ec04.html




回复人内容
angelue (准工友) 正需要,支持楼主大人了!
angelue (准工友) 这世界上我只想感谢一个人,那就是楼主。
jszj5942 (准工友) 湖南电视台已经落伍了
2112711 (准工友) 感谢楼主分享!
RENRENWANG (准工友) 找遍整个互联网没找到,没想到在这儿找到了,十分感谢!
c33weier (准工友) 00000000000000000

快捷评论:

 
 登录后可评论资源 ^0^ 点我登录