终端/刺杀终点战(台) Terminal.2018.WEB-DL.Amazon.1080p.Rus-MuzOboz-Ash61 7.19 GiB

发布人: 匿名  
类型:电影  1080P电影
[2018][欧美][剧情]
大小:7.19 GB
资源得分:暂无评分  / 该工友平均得分:  
 
 
 



◎译  名 终端/刺杀终点战(台)
◎片  名 Terminal
◎年  代 2018
◎国  家 英国
◎类  别 剧情/惊悚
◎语  言 英语
◎字  幕 英文...
◎IMDb评分 5.2/10 from 1001 users
◎IMDB链接 http://www.imdb.com/title/tt4463816
◎文件格式 x264 + EAC3
◎视频尺寸 1920x1080
◎文件大小 7.19 GiB
◎片  长 1h 35mn
◎导  演 Vaughn Stein
◎主  演 玛格特·罗比
       西蒙·佩吉
       麦克·梅尔斯
       马克斯·艾恩斯
       德克斯特·弗莱彻


◎简  介


  围绕由德克斯特·弗莱彻和麦克斯·艾恩斯饰演的两个杀手、一起危险的任务和一个神秘却出价很高的雇主展开。在执行任务的过程中,他们遇到了包括神秘的看门人、一个叫做安妮的蛇蝎美人等人物,在这个变幻莫测的女人出现后,各种麻烦接踵而至。

  1. General
  2. Unique ID : 214103069872077920221141843934958978187 (0xA112C058287D1942B9AD51F72A1A048B)
  3. Complete name : D:Terminal(2018)WEB-DL(Amazon)1080p(Rus-MuzOboz[Ash61]).mkv
  4. Format : Matroska
  5. Format version : Version 2
  6. File size : 7.19 GiB
  7. Duration : 1h 35mn
  8. Overall bit rate mode : Variable
  9. Overall bit rate : 10.8 Mbps
  10. Movie name : Конченая (Конечная) / Terminal (2018)
  11. Encoded date : UTC 2018-05-15 13:46:27
  12. Writing application : mkvmerge v5.8.0 ('No Sleep / Pillow') built on Sep 2 2012 15:37:04
  13. Writing library : libebml v1.2.3 + libmatroska v1.3.0
  14.  
  15. Video
  16. ID : 1
  17. Format : AVC
  18. Format/Info : Advanced Video Codec
  19. Format profile : [email protected]
  20. Format settings, CABAC : Yes
  21. Format settings, ReFrames : 4 frames
  22. Codec ID : V_MPEG4/ISO/AVC
  23. Duration : 1h 35mn
  24. Bit rate mode : Variable
  25. Bit rate : 9 286 Kbps
  26. Maximum bit rate : 15.0 Mbps
  27. Width : 1 920 pixels
  28. Height : 1 080 pixels
  29. Display aspect ratio : 16:9
  30. Frame rate mode : Constant
  31. Frame rate : 23.976 (24000/1001) fps
  32. Color space : YUV
  33. Chroma subsampling : 4:2:0
  34. Bit depth : 8 bits
  35. Scan type : Progressive
  36. Bits/(Pixel*Frame) : 0.187
  37. Stream size : 6.20 GiB (86%)
  38. Title : WEB-DL (Amazon)
  39. Language : English
  40. Default : Yes
  41. Forced : No
  42. Color range : Limited
  43. Color primaries : BT.709
  44. Transfer characteristics : BT.709
  45. Matrix coefficients : BT.709
  46.  
  47. Audio #1
  48. ID : 2
  49. Format : AC-3
  50. Format/Info : Audio Coding 3
  51. Mode extension : CM (complete main)
  52. Format settings, Endianness : Big
  53. Codec ID : A_AC3
  54. Duration : 1h 35mn
  55. Bit rate mode : Constant
  56. Bit rate : 640 Kbps
  57. Channel(s) : 6 channels
  58. Channel positions : Front: L C R, Side: L R, LFE
  59. Sampling rate : 48.0 KHz
  60. Frame rate : 31.250 fps (1536 spf)
  61. Compression mode : Lossy
  62. Stream size : 437 MiB (6%)
  63. Title : MVO - MuzOboz (монтаж Ash61)
  64. Language : Russian
  65. Default : Yes
  66. Forced : No
  67.  
  68. Audio #2
  69. ID : 3
  70. Format : E-AC-3
  71. Format/Info : Audio Coding 3
  72. Format settings, Endianness : Big
  73. Codec ID : A_EAC3
  74. Duration : 1h 35mn
  75. Bit rate mode : Constant
  76. Bit rate : 640 Kbps
  77. Channel(s) : 6 channels
  78. Channel positions : Front: L C R, Side: L R, LFE
  79. Sampling rate : 48.0 KHz
  80. Frame rate : 187.500 fps (256 spf)
  81. Compression mode : Lossy
  82. Stream size : 437 MiB (6%)
  83. Title : Original
  84. Language : English
  85. Default : No
  86. Forced : No
  87.  
  88. Text #1
  89. ID : 4
  90. Format : UTF-8
  91. Codec ID : S_TEXT/UTF8
  92. Codec ID/Info : UTF-8 Plain Text
  93. Title : Форсированные (от Ash61)
  94. Language : Russian
  95. Default : Yes
  96. Forced : No
  97.  
  98. Text #2
  99. ID : 5
  100. Format : UTF-8
  101. Codec ID : S_TEXT/UTF8
  102. Codec ID/Info : UTF-8 Plain Text
  103. Title : Full
  104. Language : English
  105. Default : No
  106. Forced : No
  107.  
  108. Text #3
  109. ID : 6
  110. Format : UTF-8
  111. Codec ID : S_TEXT/UTF8
  112. Codec ID/Info : UTF-8 Plain Text
  113. Title : SDH
  114. Language : English
  115. Default : No
  116. Forced : No
  117.  
  118. Text #4
  119. ID : 7
  120. Format : UTF-8
  121. Codec ID : S_TEXT/UTF8
  122. Codec ID/Info : UTF-8 Plain Text
  123. Title : Full
  124. Language : Spanish
  125. Default : No
  126. Forced : No

部分内容需要登录后才能查看。登录












电影,电视剧,字幕下载软件地址:http://www.banyungong.org/magnetm/706d600a73684616a3d4d3145dc4ec04.html




还没有人发表评论哦~您要说点什么吗?

快捷评论:

 
 登录后可评论资源 ^0^ 点我登录