2018年《开学第一课》“创造向未来”.20180901.UNCUT.1080i.CCTV1.HDTV.H.264.DD5.1-FLTTH.ts 9.58G

发布人: 匿名  
类型:综艺  大陆综艺
[2018][真人秀]
大小:9.58 GB
资源得分:10.0  / 该工友平均得分:  
 
 
 

节目简介:
    2018年《开学第一课》以“创造向未来”为主题,通过“梦想、奋斗、探索、未来”四个篇章,在“创造精神”指引下,探讨梦想的崛起、探索的力量、奋斗的重要和未来的美好,以充满前瞻性和未来感的设计,引领广大中小学生感悟创造精神的魅力和重要意义,鼓励孩子们锻炼实践能力、提升科学素养、培育创新精神,在新的时代节点上,更好地向未来出发。节目由撒贝宁、何炅主持,在青年演员王鹤棣、官鸿、梁靖康、吴希泽充满活力的《开学第一课》主题曲中拉开序幕。

  

  1. General
  2. ID                                       : 1 (0x1)
  3. Complete name                            : 开学第一课.20180901.UNCUT.1080i.CCTV1.HDTV.H.264.DD5.1-FLTTH.ts
  4. Format                                   : MPEG-TS
  5. File size                                : 9.58 GiB
  6. Duration                                 : 1 h 44 min
  7. Overall bit rate mode                    : Variable
  8. Overall bit rate                         : 13.1 Mb/s
  9.  
  10. Video
  11. ID                                       : 256 (0x100)
  12. Menu ID                                  : 1 (0x1)
  13. Format                                   : AVC
  14. Format/Info                              : Advanced Video Codec
  15. Format profile                           : [email protected]
  16. Format settings                          : CABAC / 2 Ref Frames
  17. Format settings, CABAC                   : Yes
  18. Format settings, RefFrames               : 2 frames
  19. Codec ID                                 : 27
  20. Duration                                 : 1 h 45 min
  21. Bit rate mode                            : Variable
  22. Bit rate                                 : 12.0 Mb/s
  23. Maximum bit rate                         : 17.6 Mb/s
  24. Width                                    : 1 920 pixels
  25. Height                                   : 1 080 pixels
  26. Display aspect ratio                     : 16:9
  27. Frame rate                               : 25.000 FPS
  28. Color space                              : YUV
  29. Chroma subsampling                       : 4:2:0
  30. Bit depth                                : 8 bits
  31. Scan type                                : Interlaced
  32. Scan type, store method                  : Separated fields
  33. Scan order                               : Top Field First
  34. Bits/(Pixel*Frame)                       : 0.231
  35. Stream size                              : 8.78 GiB (92%)
  36.  
  37. Audio
  38. ID                                       : 257 (0x101)
  39. Menu ID                                  : 1 (0x1)
  40. Format                                   : AC-3
  41. Format/Info                              : Audio Coding 3
  42. Codec ID                                 : 129
  43. Duration                                 : 1 h 44 min
  44. Bit rate mode                            : Constant
  45. Bit rate                                 : 448 kb/s
  46. Channel(s)                               : 6 channels
  47. Channel positions                        : Front: L C R, Side: L R, LFE
  48. Sampling rate                            : 48.0 kHz
  49. Frame rate                               : 31.250 FPS (1536 SPF)
  50. Bit depth                                : 16 bits
  51. Compression mode                         : Lossy
  52. Delay relative to video                  : -4 ms
  53. Stream size                              : 336 MiB (3%)
  54. Service kind                             : Complete Main
  55.  
  56. Menu
  57. ID                                       : 4096 (0x1000)
  58. Menu ID                                  : 1 (0x1)
  59. Duration                                 : 1 h 44 min
  60. List                                     : 256 (0x100) (AVC) / 257 (0x101) (AC-3)
  61. Service name                             : CCTV1-HD
  62. Service provider                         : CCTV
  63. Service type                             : digital television
  64.  
  65.  

 


部分内容需要登录后才能查看。登录












电影,电视剧,字幕下载软件地址:http://www.banyungong.org/magnetm/706d600a73684616a3d4d3145dc4ec04.html




回复人内容
旭日升 (准工友) 感谢楼主分享!
yyyxxxddd (准工友) 找遍整个互联网没找到,没想到在这儿找到了,十分感谢!
firefirely (准工友) 这就是所谓的让全国儿童看了15分钟广告的宣传片吧?
limeiqiang (准工友) 感谢楼主分享精彩!
chenyh68 (准工友) 感谢楼主分享!
chenyh68 (准工友) 放不了,只有声音,没有图像?

快捷评论:

 
 登录后可评论资源 ^0^ 点我登录