英雄本色2018/英雄本色4 [国语]A.Better.Tomorrow.2018.CHINESE.1080p.BluRay.x264.DD5.1-FGT 9.53GB

发布人: 匿名  
类型:电影  1080P电影
[2017][大陆][剧情]
大小:9.53 GB
资源得分:暂无评分  / 该工友平均得分:  
 
 
 

◎译  名 英雄本色4
◎片  名 英雄本色2018
◎年  代 2018
◎产  地 中国大陆/香港
◎类  别 剧情/动作
◎语  言 汉语普通话
◎上映日期 2018-01-18(中国大陆)
◎IMDb评分  7.7/10 from 69 users
◎豆瓣评分 5.1/10 from 14,513 users
◎片  长 110分钟
◎导  演 丁晟 Sheng Ding
◎主  演 王凯 Kai Wang
      马天宇 Ray Ma
      王大陆 Darren Wang
      余皑磊 Ailei Yu
      林雪 Suet Lam
      吴樾 Yue Wu
      李梦 Meng Li
      张艺上 Yishang Zhang
      姜珮瑶 Peiyao Jiang
      李岷城 Mincheng Li
      宁浩 Hao Ning
      韩寒 Han Han
      丁晟 Sheng Ding
      曾志伟 Eric Tsang
 
◎简  介
 
  周凯(王凯 饰)参与走私,被身为缉毒警察的弟弟周超(马天宇 饰)逮捕入狱。三年后,周凯出狱,改过自新。曾经的手下阿仓(余皑磊 饰)已为毒贩头目,为获取周凯的海外客户资料,设计加害周凯。江湖中的好兄弟马柯(王大陆 饰)为了替周凯报仇,失去一条腿。自己的亲弟弟周超不相信哥哥周凯已金盆洗手,不断搜集证据,欲亲手逮捕周凯。最终,周凯与警方合作,逮捕了阿仓,两兄弟重归于好。




  1. Video
  2. ID                                       : 1
  3. Format                                   : AVC
  4. Format/Info                              : Advanced Video Codec
  5. Format profile                           : [email protected]
  6. Format settings                          : CABAC / 4 Ref Frames
  7. Format settings, CABAC                   : Yes
  8. Format settings, ReFrames                : 4 frames
  9. Codec ID                                 : V_MPEG4/ISO/AVC
  10. Duration                                 : 1 h 53 min
  11. Bit rate                                 : 11.5 Mb/s
  12. Width                                    : 1 920 pixels
  13. Height                                   : 804 pixels
  14. Display aspect ratio                     : 2.40:1
  15. Frame rate mode                          : Constant
  16. Frame rate                               : 24.000 FPS
  17. Color space                              : YUV
  18. Chroma subsampling                       : 4:2:0
  19. Bit depth                                : 8 bits
  20. Scan type                                : Progressive
  21. Bits/(Pixel*Frame)                       : 0.310
  22. Stream size                              : 9.02 GiB (95%)
  23. Title                                    : A.Better.Tomorrow.2018.CHINESE.1080p.BluRay.x264.DD5.1-FGT
  24. Writing library                          : x264 core 148 r2795M aaa9aa8
  25. Encoding settings                        : cabac=1 / ref=4 / deblock=1:-2:-2 / analyse=0x3:0x113 / me=umh / subme=9 / psy=1 / psy_rd=1.00:0.15 / mixed_ref=1 / me_range=16 / chroma_me=1 / trellis=2 / 8x8dct=1 / cqm=0 / deadzone=21,11 / fast_pskip=1 / chroma_qp_offset=-3 / threads=24 / lookahead_threads=3 / sliced_threads=0 / nr=0 / decimate=1 / interlaced=0 / bluray_compat=0 / constrained_intra=0 / bframes=3 / b_pyramid=2 / b_adapt=2 / b_bias=0 / direct=3 / weightb=1 / open_gop=0 / weightp=2 / keyint=250 / keyint_min=25 / scenecut=40 / intra_refresh=0 / rc_lookahead=50 / rc=abr / mbtree=1 / bitrate=11500 / ratetol=1.0 / qcomp=0.60 / qpmin=0 / qpmax=69 / qpstep=4 / vbv_maxrate=31250 / vbv_bufsize=31250 / nal_hrd=none / filler=0 / ip_ratio=1.40 / aq=1:1.00
  26. Language                                 : Chinese
  27. Default                                  : Yes
  28. Forced                                   : No
  29.  
  30. Audio
  31. ID                                       : 2
  32. Format                                   : AC-3
  33. Format/Info                              : Audio Coding 3
  34. Codec ID                                 : A_AC3
  35. Duration                                 : 1 h 53 min
  36. Bit rate mode                            : Constant
  37. Bit rate                                 : 640 kb/s
  38. Channel(s)                               : 6 channels
  39. Channel positions                        : Front: L C R, Side: L R, LFE
  40. Sampling rate                            : 48.0 kHz
  41. Frame rate                               : 31.250 FPS (1536 SPF)
  42. Bit depth                                : 16 bits
  43. Compression mode                         : Lossy
  44. Stream size                              : 521 MiB (5%)
  45. Title                                    : A.Better.Tomorrow.2018.CHINESE.1080p.BluRay.x264.DD5.1-FGT
  46. Language                                 : Chinese
  47. Service kind                             : Complete Main
  48. Default                                  : Yes
  49. Forced                                   : No
  50.  
  51. Text
  52. ID                                       : 3
  53. Format                                   : UTF-8
  54. Codec ID                                 : S_TEXT/UTF8
  55. Codec ID/Info                            : UTF-8 Plain Text
  56. Duration                                 : 1 h 47 min
  57. Bit rate                                 : 41 b/s
  58. Count of elements                        : 1426
  59. Stream size                              : 33.0 KiB (0%)
  60. Title                                    : English
  61. Language                                 : English
  62. Default                                  : Yes
  63. Forced                                   : Yes
  64.  
  65. Menu
  66. 00:00:00.000                             : en:Chapter 01
  67. 00:04:53.541                             : en:Chapter 02
  68. 00:10:22.833                             : en:Chapter 03
  69. 00:16:43.125                             : en:Chapter 04
  70. 00:23:15.041                             : en:Chapter 05
  71. 00:30:05.250                             : en:Chapter 06
  72. 00:38:46.208                             : en:Chapter 07
  73. 00:42:03.833                             : en:Chapter 08
  74. 00:46:45.791                             : en:Chapter 09
  75. 00:51:35.708                             : en:Chapter 10
  76. 00:56:53.791                             : en:Chapter 11
  77. 01:03:33.458                             : en:Chapter 12
  78. 01:08:25.666                             : en:Chapter 13
  79. 01:16:38.291                             : en:Chapter 14
  80. 01:23:25.916                             : en:Chapter 15
  81. 01:29:41.833                             : en:Chapter 16
  82. 01:32:27.250                             : en:Chapter 17
  83. 01:38:44.666                             : en:Chapter 18
  84. 01:45:44.333                             : en:Chapter 19
  85. 01:50:26.041                             : en:Chapter 20

部分内容需要登录后才能查看。登录












电影,电视剧,字幕下载软件地址:http://www.banyungong.org/magnetm/706d600a73684616a3d4d3145dc4ec04.html




还没有人发表评论哦~您要说点什么吗?

快捷评论:

 
 登录后可评论资源 ^0^ 点我登录