[BT下载]波士顿马拉松 Boston.2017.1080p.AMZN.WEBRip.DDP5.1.x264-monkee 8.5GB

发布人: iRobot  银河系工友
类型:电影  1080P电影
[2017][欧美][其他]
大小:8.54 GB
资源得分:暂无评分  / 该工友平均得分:9.2  
 
 
 

Boston.2017.1080p.AMZN.WEBRip.DDP5.1.x264-monkee

◎译  名 波士顿马拉松

◎片  名 Boston

◎年  代 2017

◎产  地 美国

◎类  别 纪录片

◎语  言 英语

◎上映日期 2017-04-19(美国)

◎IMDb评分  7.5/10 from 62 users

◎IMDb链接  http://www.imdb.com/title/tt6654082/

◎BT之家整理 http://www.btbtt.co

◎片  长 114分钟

◎导  演 Jon Dunham

◎主  演 马特·达蒙 Matt Damon

      Robert de Castella

      Rosa Mota

      Bill Rodgers

      Joan Benoit Samuelson


◎简  介


  The history of the Boston Marathon from its humble origins starting with only 15 runners| to the first female runners| through the tragedy in 2013| and ultimatelythe triumph of 2014.


Video
ID                                       : 1
Format                                   : AVC
Format/Info                              : Advanced Video Codec
Format profile                           : [email protected]
Format settings                          : CABAC / 4 Ref Frames
Format settings, CABAC                   : Yes
Format settings, ReFrames                : 4 frames
Codec ID                                 : V_MPEG4/ISO/AVC
Duration                                 : 1 h 54 min
Bit rate mode                            : Variable
Bit rate                                 : 10.1 Mb/s
Maximum bit rate                         : 15.0 Mb/s
Width                                    : 1 920 pixels
Height                                   : 1 080 pixels
Display aspect ratio                     : 16:9
Frame rate mode                          : Constant
Frame rate                               : 23.976 (24000/1001) FPS
Color space                              : YUV
Chroma subsampling                       : 4:2:0
Bit depth                                : 8 bits
Scan type                                : Progressive
Bits/(Pixel*Frame)                       : 0.202
Stream size                              : 8.03 GiB (94%)
Default                                  : Yes
Forced                                   : No
Color range                              : Limited
Color primaries                          : BT.709
Transfer characteristics                 : BT.709
Matrix coefficients                      : BT.709

Audio
ID                                       : 2
Format                                   : E-AC-3
Format/Info                              : Enhanced Audio Coding 3
Codec ID                                 : A_EAC3
Duration                                 : 1 h 54 min
Bit rate mode                            : Constant
Bit rate                                 : 640 kb/s
Channel(s)                               : 6 channels
Channel positions                        : Front: L C R, Side: L R, LFE
Sampling rate                            : 48.0 kHz
Frame rate                               : 187.500 FPS (256 SPF)
Compression mode                         : Lossy
Stream size                              : 523 MiB (6%)
Language                                 : English
Service kind                             : Complete Main
Default                                  : Yes
Forced                                   : No

Text #1
ID                                       : 3
Format                                   : UTF-8
Codec ID                                 : S_TEXT/UTF8
Codec ID/Info                            : UTF-8 Plain Text
Duration                                 : 1 h 53 min
Bit rate                                 : 79 b/s
Count of elements                        : 1723
Stream size                              : 65.7 KiB (0%)
Language                                 : English
Default                                  : No
Forced                                   : No

Text #2
ID                                       : 4
Format                                   : UTF-8
Codec ID                                 : S_TEXT/UTF8
Codec ID/Info                            : UTF-8 Plain Text
Duration                                 : 1 h 53 min
Bit rate                                 : 86 b/s
Count of elements                        : 1864
Stream size                              : 72.0 KiB (0%)
Title                                    : SDH
Language                                 : English
Default                                  : No
Forced                                   : No



部分内容需要登录后才能查看。登录












我是机器人,给我留言也不会回复,谢谢.......




还没有人发表评论哦~您要说点什么吗?

快捷评论:

 
 登录后可评论资源 ^0^ 点我登录