2019江苏卫视跨年演唱会全程4.08小时完整版[HD1080.MPEG-4]33GB[百度网盘]

发布人: 匿名  
类型:综艺  大陆综艺
[2018][真人秀]
大小:33 GB
资源得分:8.2  / 该工友平均得分:  
 
 
 



时间:2018年12月31日19:30
地点:澳门金光综艺馆
播出平台:江苏卫视
2019江苏卫视跨年演唱会时间、地点、门票及嘉宾
  用奋斗点亮幸福!2019江苏卫视跨年演唱会将于2018年12月31日19:30在澳门金光综艺馆进行全球直播。这是继2017年“17聚幸福”跨年演唱会之后,江苏卫视再度与澳门亲密相约。在即将迎来澳门回归祖国20周年的特殊节点,江苏卫视将一如既往的以最大的诚意为所有观众带来一场兼具正能量和品质感的视听盛宴。
  今年的整台晚会以“用奋斗点亮幸福”为主题,在致敬时代、感恩观众的同时,也将继续为搭建两地文化交流平台做出积极贡献
  那么,今年将有哪些特色环节和经典歌曲会与观众见面?今年的江苏跨年又将如何刷新大众的想象力边界?
  荔枝跨年的倒计时脚步已然响起,就让我们一起静待那激动人心的夜晚惊喜降临吧!
明星阵容节目单:
  对于最受关注的演唱会嘉宾,据了解,目前已经确定了毛不易、蔡依林、汪苏泷、刘维、李荣浩、朴树、周华健、张靓颖等多位明星加盟,还有很多加盟明星的名字被保密。可以肯定的是,这些明星中,既有富有号召力的实力派唱将,也有在年轻粉丝中极具人气的新生代歌手。

 

白金真声集结,实力唱将与大家携手迈入2019。李宇春第三次登上跨年演唱会舞台。零点时刻,张狂骄傲的《流行》,荡气回肠的《木兰》以及将在演唱会现场重磅首发的全新单曲《新物种》都将带来无与伦比的惊喜。“百变女王”蔡依林重返,将带来《大艺术家》与《迷幻+大丈夫+美杜莎+怪美的》五首歌曲联唱,而《怪美的》是蔡依林新专辑《Ugly Beauty》的首波主打,这首歌曲编曲风格强烈多元,跨年首唱将带给观众震撼观感


 

首登荔枝跨年的张杰,将为观众献上《Perfume》《竹》和《最美的太阳》三首好歌。唱功了得的他还特意为荔枝跨年“加料”,在演唱新歌《Perfume》时将带来精心编排的“香水舞”。江苏卫视的老朋友林俊杰,现场将再现行走CD的完美音质,献唱快歌组合《圣所+明天》慢歌组合《她说+可惜没如果+修炼爱情》以及《那些你很冒险的梦》;“双杰”出击,让你好听到“耳朵怀孕”;华健“亮剑”,带你感受江湖里的侠骨柔情。作为华语乐坛最具侠气的唱匠,周华健的音乐刚柔并济、包罗万象,唱尽人世间的情理、爱恨、恩仇,他将武侠歌曲《铁血丹心+天下有情人+难念的经+沧海一声笑+刀剑如梦》进行串烧组合,将再现“飞雪连天射白鹿,笑书神侠倚碧鸳”的金庸武侠宇宙。

 

劲歌热舞不停歇,唱跳俱佳的陈伟霆,将带来自己参与词曲创作的作品《1121》,以及致敬香港乐坛黄金岁月的四大天王经典串烧《我恨我痴心+我的亲爱+头发乱了+para para樱之花》,唱作小天后邓紫棋则将带来今年度的爆款金曲《光年之外》,另有《来自天堂的魔鬼》,以非凡唱功震撼人心。

 

深情歌者齐聚,醉人歌声演绎经典。毛不易带来《像我这样的人》和《不染》,朴树用《平淡之路》和《送别》淡然吟唱人生百态;薛之谦《违背的青春》和《暧昧》唱出感情中的遗憾;时光荏苒初心不改,经典组合TWINS、草蜢也将来到现场带给大家属于青春的跳跃旋律。

 

现场更有突破想象的跨界组合引爆惊喜。张靓颖和李荣浩合唱《你不是真正的快乐》;薛之谦打破次元壁携手洛天依带来《达拉崩吧》,林志玲搭配刘宇宁带来让人耳目一新的《说散就散》……

 

唱将集结,以歌会友。除了白金真声的演唱会狂欢,还有现场以“天圆地方 大道至简”为设计主题,匠心开辟地天圆地方式两块舞台空间、无线飞行器飞行技术应用的科技赋能加上AR技术打造的“惊艳绝伦”的视觉效果。就在今晚,请将你的朋友圈留给江苏卫视!































Format                         : MPEG-4
Format profile                 : Base Media
Codec ID                       : isom (mp41)
File size                      : 33.1 GiB
Duration                       : 4 h 7 min
Overall bit rate mode          : Variable
Overall bit rate               : 19.2 Mb/s
Encoded date                   : UTC 2019-01-01 11:54:22
Tagged date                    : UTC 2019-01-01 11:54:22
Writing application            : Bandicam 4.2.0.1439 / GDI / Nvidia NVENC


Video
ID                             : 1
Format                         : AVC
Format/Info                    : Advanced Video Codec
Format profile                 : [email protected]
Format settings                : CABAC / 1 Ref Frames
Format settings, CABAC         : Yes
Format settings, ReFrames      : 1 frame
Codec ID                       : avc1
Codec ID/Info                  : Advanced Video Coding
Duration                       : 4 h 7 min
Bit rate                       : 19.0 Mb/s
Width                          : 1 920 pixels
Height                         : 1 080 pixels
Display aspect ratio           : 16:9
Frame rate mode                : Variable
Frame rate                     : 24.500 FPS
Minimum frame rate             : 1.364 FPS
Maximum frame rate             : 30.030 FPS
Original frame rate            : 30.000 FPS
Color space                    : YUV
Chroma subsampling             : 4:2:0
Bit depth                      : 8 bits
Scan type                      : Progressive
Bits/(Pixel*Frame)             : 0.373
Stream size                    : 32.7 GiB (99%)
Language                       : English
Encoded date                   : UTC 2019-01-01 11:54:22
Tagged date                    : UTC 2019-01-01 11:54:22
Codec configuration box        : avcC


Audio
ID                             : 2
Format                         : AAC LC
Format/Info                    : Advanced Audio Codec Low Complexity
Codec ID                       : mp4a-40-2
Duration                       : 4 h 7 min
Bit rate mode                  : Variable
Bit rate                       : 192 kb/s
Maximum bit rate               : 301 kb/s
Channel(s)                     : 2 channels
Channel layout                 : L R
Sampling rate                  : 48.0 kHz
Frame rate                     : 46.875 FPS (1024 SPF)
Compression mode               : Lossy
Stream size                    : 346 MiB (1%)
Language                       : English
Encoded date                   : UTC 2019-01-01 11:54:22
Tagged date                    : UTC 2019-01-01 11:54:22


部分内容需要登录后才能查看。登录












电影,电视剧,字幕下载软件地址:http://www.banyungong.org/magnetm/706d600a73684616a3d4d3145dc4ec04.html




回复人内容
npang (准工友) 感谢楼主分享。
qiaoyongzhi (准工友) 感谢楼主分享。
md520 (准工友) 非常丰盛的视觉晚宴
shueiping (准工友) 感谢楼主分享。。。感谢。
广西天裂 (准工友) 楼主的大恩大德,小的永记于心!
l5192152 (准工友) 感谢支持楼主为大家奉献资源
222xiaowu (准工友) 感谢楼主分享!
醒目仔 (准工友) 感谢楼主分享!
醒目仔 (准工友) 感谢楼主分享!
bsj780 (准工友) 感谢楼主分享
perrychen (入门工友) 为啥要收费,没诚信
ak1975 (准工友) 感谢楼主分享~~~~~~~~~~~~~~~~~~~~~
lili1025 (准工友) 感谢楼主分享!
tom25674 (准工友) 这世界上我只想感谢一个人,那就是楼主。
jingwoei (准工友) 感谢楼主分享!
2112711 (准工友) 感谢楼主分享!
weijunyan (准工友) 感谢楼主分享!
wmmq (准工友) 感谢楼主分享!
苏州狂客 (准工友) 感谢楼主分享!
datianxiang (准工友) 我爱的东东。谢谢。

快捷评论:

 
 登录后可评论资源 ^0^ 点我登录