泰勒斯威夫特.举世盛名巡回演唱会2018.HD720/1080P.X264.AAC[中英字幕]2.6G/5.37G百度

发布人: 匿名  
类型:音乐  演唱会
[2018][流行]
大小:5.37 GB
资源得分:9.5  / 该工友平均得分:  
 
 
 

◎译  名 泰勒·斯威夫特:“举世盛名”巡回演唱会 / Taylor Swift: Reputation巡回演唱会(港) / Taylor Swift: Reputation巡演纪录片 / 泰勒·斯威夫特:“名誉”巡回演唱会 / 泰勒丝:举世盛名巡回演唱会(台)
◎片  名 Taylor Swift: Reputation Stadium Tour
◎年  代 2018
◎产  地 美国
◎类  别 纪录片 / 音乐
◎语  言 英语
◎上映日期 2018-12-31(美国)
◎IMDb评分 10.0/10 from 8 users
◎豆瓣评分 9.4/10 from 193 users
◎片  长 125分钟
◎导  演 保罗·达格代尔 Paul Dugdale
◎主  演 泰勒·斯威夫特 Taylor Swift
◎标  签 TaylorSwift | 演唱会 | Netflix | 纪录片 | 音乐 | 美国 | 2018 | Live
◎简  介
您已读过头条,听过传闻,而现在她将用红唇唱出真相。泰勒·斯威夫特将赠予全世界观众近距离观赏“泰勒·斯威夫特的名誉体育场巡回演唱会”在美国最后一场表演的机会,该巡回演唱会是美国历史以来销售额最高的巡演,现在仅在 Netflix 上放映!这部传奇的演唱会电影将展示火焰特技、烟花、数个场景以及 63 英尺的眼镜蛇卡林。
《泰勒·斯威夫特的名誉体育场巡回演唱会》将从 12 月 31 日起在 Netflix 上面向全球上线,您可以随处观看这场销售一空并囊括 6 万人的表演——无论是在家庭聚会上,东区的酒吧里,还是在沙发上和猫一起看。无论如何,这都将是一个最佳的新年夜计划。你准备好了吗?
 
 

General
Complete name                  : 泰勒·斯威夫特:举世盛名巡回演唱会.Taylor.Swift.Reputation.Stadium.Tour.2018.HD1080P.X264.AAC.English.CHS-ENG.Mp4Ba.mp4
Format                         : MPEG-4
Format profile                 : Base Media
Codec ID                       : isom (isom)
File size                      : 5.37 GiB
Duration                       : 2 h 5 min
Overall bit rate mode          : Variable
Overall bit rate               : 6 130 kb/s
Encoded date                   : UTC 2019-01-01 03:02:38
Tagged date                    : UTC 2019-01-01 03:02:38


Video
ID                             : 1
Format                         : AVC
Format/Info                    : Advanced Video Codec
Format profile                 : [email protected]
Format settings                : CABAC / 4 Ref Frames
Format settings, CABAC         : Yes
Format settings, ReFrames      : 4 frames
Codec ID                       : avc1
Codec ID/Info                  : Advanced Video Coding
Duration                       : 2 h 5 min
Bit rate                       : 5 749 kb/s
Maximum bit rate               : 30.8 Mb/s
Width                          : 1 920 pixels
Height                         : 1 080 pixels
Display aspect ratio           : 16:9
Frame rate mode                : Constant
Frame rate                     : 23.976 (24000/1001) FPS
Color space                    : YUV
Chroma subsampling             : 4:2:0
Bit depth                      : 8 bits
Scan type                      : Progressive
Bits/(Pixel*Frame)             : 0.116
Stream size                    : 5.04 GiB (94%)
Title                          : Mp4Ba.Com
Encoded date                   : UTC 2018-12-31 19:07:23
Tagged date                    : UTC 2019-01-01 03:07:29
Codec configuration box        : avcC


Audio
ID                             : 2
Format                         : AAC LC
Format/Info                    : Advanced Audio Codec Low Complexity
Codec ID                       : mp4a-40-2
Duration                       : 2 h 5 min
Bit rate mode                  : Variable
Bit rate                       : 384 kb/s
Maximum bit rate               : 412 kb/s
Channel(s)                     : 2 channels
Channel layout                 : L R
Sampling rate                  : 48.0 kHz
Frame rate                     : 46.875 FPS (1024 SPF)
Compression mode               : Lossy
Stream size                    : 339 MiB (6%)
Title                          : Mp4Ba.Com
Encoded date                   : UTC 2018-12-31 15:04:26
Tagged date                    : UTC 2019-01-01 03:07:29 

 
 
 
 
 
 
 
 
 

部分内容需要登录后才能查看。登录












电影,电视剧,字幕下载软件地址:http://www.banyungong.org/magnetm/706d600a73684616a3d4d3145dc4ec04.html




回复人内容
firefirely (准工友) 网飞版本,速度真快!感谢
firefirely (准工友) 网飞版本,速度真快!感谢
ycy7861 (准工友) 正需要,支持楼主大人了!
铁哥HD (准工友) 楼主的大恩大德,小的永记于心!
bigno (准工友) 感谢楼主分享!
bear2004 (准工友) 感谢楼主分享!
meng6335453 (准工友) 感谢楼主分享!
bxjglwl (准工友) 谢谢楼主分享
ricotai (准工友) Thanks
whowho123 (准工友) 楼主的大恩大德,小的永记于心!

快捷评论:

 
 登录后可评论资源 ^0^ 点我登录