[BT下载]一出好戏[内封中字]The.Island.2018.720p.BluRay.x264-WiKi 5.47GB

发布人: iRobot  银河系工友
类型:电影  720P电影
[2018][大陆][喜剧]
大小:5.46 GB
资源得分:10.0  / 该工友平均得分:9.2  
 
 
 

◎译  名 The Island / 大富翁 / 诳想曲

◎片  名 一出好戏

◎年  代 2018

◎产  地 中国大陆

◎类  别 剧情 / 喜剧

◎语  言 汉语普通话

◎上映日期 2018-08-10(中国大陆)

◎IMDb评分 6.4/10 from 600 users

◎IMDb链接 http://www.imdb.com/title/tt8755316

◎豆瓣评分 7.2/10 from 426482 users

◎豆瓣链接 https://movie.douban.com/subject/26985127/

◎片  长 134分钟

◎导  演 黄渤 Bo Huang

◎编  剧 黄渤 Bo Huang / 张冀 Ji Zhang / 郭俊立 Junli Guo / 查慕春 Muchun Zha / 崔斯韦 Siwei Cui / 邢爱娜 Aina Xing / 黄湛中 Zhanzhong Huang

◎主  演 黄渤 Bo Huang

      舒淇 Qi Shu

      王宝强 Baoqiang Wang

      张艺兴 Yixing Zhang

      于和伟 Hewei Yu

      王迅 Xun Wang

      李勤勤 Qinqin Li

      李又麟 You-Lin Lee

      宁浩 Hao Ning

      管虎 Hu Guan

      梁静 Jing Liang

      徐峥 Zheng Xu

      陈德森 Teddy Chan

      张磊 Lei Zhang

 

 

 

 

◎简  介  

 

  马进欠下债务,与远房表弟小兴在底层社会摸爬滚打,习惯性的买彩票,企图一夜暴富,并迎娶自己的同事姗姗。一日,公司全体员工出海团建,途中,马进收到了彩票中头奖的信息,六千万!就在马进狂喜自己翻身的日子终于到来之际,一场突如其来的滔天巨浪打破了一切。苏醒过来的众人发现身处荒岛 ,丧失了一切与外界的联系……

 

 

Video
ID : 1
Format : AVC
Format/Info : Advanced Video Codec
Format profile : [email protected]
Format settings : CABAC / 11 Ref Frames
Format settings, CABAC : Yes
Format settings, ReFrames : 11 frames
Codec ID : V_MPEG4/ISO/AVC
Duration : 2 h 13 min
Bit rate : 5 225 kb/s
Width : 1 280 pixels
Height : 570 pixels
Display aspect ratio : 2.25:1
Frame rate mode : Constant
Frame rate : 24.000 FPS
Color space : YUV
Chroma subsampling : 4:2:0
Bit depth : 8 bits
Scan type : Progressive
Bits/(Pixel*Frame) : 0.298
Stream size : 4.87 GiB (89%)
Writing library : x264 core 129 r2245 bc13772
Encoding settings : cabac=1 / ref=11 / deblock=1:-3:-3 / analyse=0x3:0x133 / me=umh / subme=11 / psy=1 / psy_rd=1.05:0.05 / mixed_ref=1 / me_range=32 / chroma_me=1 / trellis=2 / 8x8dct=1 / cqm=0 / deadzone=21,11 / fast_pskip=0 / chroma_qp_offset=-3 / threads=12 / lookahead_threads=2 / sliced_threads=0 / nr=0 / decimate=1 / interlaced=0 / bluray_compat=0 / constrained_intra=0 / bframes=8 / b_pyramid=2 / b_adapt=2 / b_bias=0 / direct=3 / weightb=1 / open_gop=0 / weightp=2 / keyint=250 / keyint_min=24 / scenecut=40 / intra_refresh=0 / rc_lookahead=60 / rc=2pass / mbtree=1 / bitrate=5225 / ratetol=1.0 / qcomp=0.60 / qpmin=0 / qpmax=69 / qpstep=4 / cplxblur=20.0 / qblur=0.5 / ip_ratio=1.40 / aq=1:0.60
Language : English
Default : Yes
Forced : No

Audio
ID : 2
Format : AC-3
Format/Info : Audio Coding 3
Commercial name : Dolby Digital
Codec ID : A_AC3
Duration : 2 h 13 min
Bit rate mode : Constant
Bit rate : 640 kb/s
Channel(s) : 6 channels
Channel layout : L R C LFE Ls Rs
Sampling rate : 48.0 kHz
Frame rate : 31.250 FPS (1536 SPF)
Bit depth : 16 bits
Compression mode : Lossy
Stream size : 611 MiB (11%)
Language : Chinese
Service kind : Complete Main
Default : Yes
Forced : No

Text #1
ID : 3
Format : UTF-8
Codec ID : S_TEXT/UTF8
Codec ID/Info : UTF-8 Plain Text
Duration : 2 h 12 min
Bit rate : 44 b/s
Count of elements : 2065
Stream size : 42.7 KiB (0%)
Language : English
Default : Yes
Forced : Yes

Text #2
ID : 4
Format : UTF-8
Codec ID : S_TEXT/UTF8
Codec ID/Info : UTF-8 Plain Text
Duration : 2 h 12 min
Bit rate : 43 b/s
Count of elements : 2073
Stream size : 41.9 KiB (0%)
Title : 简体
Language : Chinese
Default : No
Forced : No

Text #3
ID : 5
Format : UTF-8
Codec ID : S_TEXT/UTF8
Codec ID/Info : UTF-8 Plain Text
Duration : 2 h 12 min
Bit rate : 43 b/s
Count of elements : 2073
Stream size : 41.9 KiB (0%)
Title : 繁体
Language : Chinese
Default : No
Forced : No

 


部分内容需要登录后才能查看。登录












我是机器人,给我留言也不会回复,谢谢.......




回复人内容
大爷是打酱油的 (入门工友) 感谢楼主分享!
3300lsm (准工友) 正需要,支持楼主大人了!
xiledoo (准工友) 多谢楼主分享!!!
再生的小飞兔 (准工友) 多谢楼主分享!!!

快捷评论:

 
 登录后可评论资源 ^0^ 点我登录