纪录片:地球加大码 全集 1080i HDTV[10.5G/百度]

发布人: byg  
类型:其它  纪录片
[2014]
大小:10.5 GB
资源得分:8.8  / 该工友平均得分:9.0  
 
 
 




 

轉載必須包括此訊息,謝謝合作!
AREA11精品高清
RTHK31.地球加大碼.1080i.HDTV.H264-AREA11
影片解析度:1920x1080 ts封裝格式
影片大小:10.5G
影片長度:共3集每集1小時
影片音軌:AC3 2 聲道@128k
影片編碼:AVC RAW
影片碼率:Overall bit rate : 8 493 Kbps
影片字幕:粵語 繁中字幕
影片壓制:[email protected]
制作出品:AREA11高清論壇

 

介紹
人類,只在一個世代,就改變了地球的外貌。一連三集《地球加大碼》介紹全球難度最高和最大膽的工程項目,記錄人類的雄心和才智。

上一個世紀,我們將地球改頭換面。幅度之大,就連祖先們也無法想像。中國小村鄉鎮,搖身變成為百萬人口的大城市;全球最高的摩天大廈,令美國眾多高樓相形 見拙;而我們所興建的巨型水壩,據聞是會影響地球自轉的速度。透過最先進的視覺效果,一連三集《地球加大碼》,將嘗試紀錄這些超級工程為地球所帶來的變 化,引領我們進入全新的生活模式。

各集內容
RTHK31.地球加大碼.E01.我們的家.1080i.HDTV.H264-AREA11.ts
RTHK31.地球加大碼.E02.東遷西徙.1080i.HDTV.H264-AREA11.ts
RTHK31.地球加大碼.E03.食物.火和水.1080i.HDTV.H264-AREA11.ts

 

H:\TVB\RTHK31\RTHK31.地球加大碼.1080i.HDTV.H264-AREA11\RTHK31.地球加大碼.E01.我們的家.1080i.HDTV.H264-AREA11.ts
  General #1
    ID : 1 (0x1)
    Complete name : H:\TVB\RTHK31\RTHK31.地球加大碼.1080i.HDTV.H264-AREA11\RTHK31.地球加大碼.E01.我們的家.1080i.HDTV.H264-AREA11.ts
    Format : MPEG-TS
    File size : 3.51 GiB
    Duration : 59mn 6s
    Overall bit rate mode : Variable
    Overall bit rate : 8 493 Kbps
  Video #311
    ID : 311 (0x137)
    Menu ID : 31 (0x1F)
    Format : AVC
    Format/Info : Advanced Video Codec
    Format profile : [email protected]
    Format settings, CABAC : Yes
    Format settings, ReFrames : 4 frames
    Format settings, GOP : M=8, N=24
    Codec ID : 27
    Duration : 59mn 6s
    Bit rate : 7 815 Kbps
    Width : 1 920 pixels
    Height : 1 080 pixels
    Display aspect ratio : 16:9
    Frame rate : 25.000 fps
    Color space : YUV
    Chroma subsampling : 4:2:0
    Bit depth : 8 bits
    Scan type : MBAFF
    Bits/(Pixel*Frame) : 0.151
    Stream size : 3.23 GiB (92%)
    Color primaries : BT.709
    Transfer characteristics : BT.709
    Matrix coefficients : BT.709
  Audio #312
    ID : 312 (0x138)
    Menu ID : 31 (0x1F)
    Format : AC-3
    Format/Info : Audio Coding 3
    Mode extension : CM (complete main)
    Format settings, Endianness : Big
    Codec ID : 6
    Duration : 59mn 6s
    Bit rate mode : Constant
    Bit rate : 128 Kbps
    Channel count : 2 channels
    Channel positions : Front: L R
    Sampling rate : 48.0 KHz
    Bit depth : 16 bits
    Compression mode : Lossy
    Delay relative to video : 30ms
    Stream size : 54.1 MiB (2%)
  Audio #313
    ID : 313 (0x139)
    Menu ID : 31 (0x1F)
    Format : AC-3
    Format/Info : Audio Coding 3
    Mode extension : CM (complete main)
    Format settings, Endianness : Big
    Codec ID : 6
    Duration : 59mn 6s
    Bit rate mode : Constant
    Bit rate : 128 Kbps
    Channel count : 2 channels
    Channel positions : Front: L R
    Sampling rate : 48.0 KHz
    Bit depth : 16 bits
    Compression mode : Lossy
    Delay relative to video : 62ms
    Stream size : 54.1 MiB (2%)
  Menu #310
    ID : 310 (0x136)
    Menu ID : 31 (0x1F)
    Duration : 59mn 6s
    List : 311 (0x137) (AVC) / 312 (0x138) (AC-3) / 313 (0x139) (AC-3)
    UTC 2014-01-17 12:30:00 : en:Supersized Earth / en: /  /  / 01:00:00 / Running
    UTC 2014-01-17 13:30:00 : en:Below The Lion Rock Classics [PG] / en: /  /  / 01:00:00 / Not running

解压密码:


部分内容需要登录后才能查看。登录












电影,电视剧,字幕下载软件地址:http://www.banyungong.org/magnetm/706d600a73684616a3d4d3145dc4ec04.html




回复人内容
icotony 谢谢你的分享
x4z 谢谢你的分享
wangjh9898 ok我非常喜欢谢谢
金三少 好看的片子,谢谢分享!
yalocovic 谢谢分享! 辛苦啦
patapon 谢谢分享!!
AlexHD 谢谢分享! 辛苦啦
gaoshibang 很棒,谢谢分享
95michelle 谢谢分享!!
mikelee118 thankssssssssssss
luoyuzhu8814 非常感谢你的分享
wonghuaxin 谢谢分享
a1e4b2 非常感谢你的分享
aw8110 谢谢你的分享
lmz4982 很高兴看到这样的资源
pdf721615074 纪录片:地球加大码 全集 1080i HDTV[10.5G/百度]
Lorun 谢谢分享! 辛苦啦
非法打火机 谢谢分享! 辛苦啦
weiq 谢谢你的分享!
softhardshjn 辛苦了,谢谢分享

快捷评论:

 
 登录后可评论资源 ^0^ 点我登录