自杀小队:严厉惩罚 Suicide.Squad.Hell.to.Pay.2018.2160p.BluRay.x264.8bit.SDR.DTS-HD.MA.5.1-SWTYBLZ 13.67GB

发布人: 匿名  
类型:电影  4K电影
[2018][欧美][动画]
大小:13.67 GB
资源得分:暂无评分  / 该工友平均得分:  
 
 
 



导演: 刘山姆
编剧: 约翰·拜恩
主演: 克里斯蒂安·史莱特 / C·托马斯·豪威尔 / 塔拉·斯特朗 / 丹妮亚·拉米雷兹 / 凡妮莎·威廉斯
类型: 动作 / 动画
制片国家/地区: 美国
语言: 英语
上映日期: 2018-03-27(美国)
片长: 86分钟
IMDb链接: tt7167602
简介 · · · · · ·
  DC动画电影《自杀小队:严厉惩罚》(Suicide Squad: Hell to Pay)发布预告,小丑女、死射、冰霜杀手、铜头蛇、回旋镖队长、铜虎组成小队,阿曼达·沃勒派遣他们去找回一个神秘物件——为此他们愿意牺牲性命,而小队很快发现他们面临着其他团伙的挑战。
  克里斯汀·史莱特、C·托马斯·豪威尔、塔拉·斯特朗、连姆·麦肯泰尔、比利·布朗、克里斯汀·鲍尔、凡妮莎·威廉姆斯、丹妮亚·拉米雷兹等参与配音,Sam Liu(《蝙蝠侠:致命玩笑》《绿灯侠》动画系列)执导,今春发行数字版、DVD和蓝光碟。





  1. Video
  2. ID                                       : 1
  3. Format                                   : AVC
  4. Format/Info                              : Advanced Video Codec
  5. Format profile                           : [email protected]
  6. Format settings                          : CABAC / 5 Ref Frames
  7. Format settings, CABAC                   : Yes
  8. Format settings, RefFrames               : 5 frames
  9. Codec ID                                 : V_MPEG4/ISO/AVC
  10. Duration                                 : 1 h 26 min
  11. Bit rate                                 : 19.5 Mb/s
  12. Width                                    : 3 840 pixels
  13. Height                                   : 2 160 pixels
  14. Display aspect ratio                     : 16:9
  15. Frame rate mode                          : Constant
  16. Frame rate                               : 23.976 (24000/1001) FPS
  17. Color space                              : YUV
  18. Chroma subsampling                       : 4:2:0
  19. Bit depth                                : 8 bits
  20. Scan type                                : Progressive
  21. Bits/(Pixel*Frame)                       : 0.098
  22. Stream size                              : 11.7 GiB (86%)
  23. Title                                    : Suicide.Squad.Hell.to.Pay.2018.2160p.BluRay.x264.8bit.SDR.DTS-HD.MA.5.1-SWTYBLZ
  24. Writing library                          : x264 core 148 r2748 97eaef2
  25. Encoding settings                        : cabac=1 / ref=5 / deblock=1:1:1 / analyse=0x3:0x113 / me=umh / subme=10 / psy=1 / psy_rd=0.40:0.00 / mixed_ref=1 / me_range=48 / chroma_me=1 / trellis=2 / 8x8dct=1 / cqm=0 / deadzone=21,11 / fast_pskip=1 / chroma_qp_offset=-2 / threads=36 / lookahead_threads=4 / sliced_threads=0 / nr=0 / decimate=0 / interlaced=0 / bluray_compat=0 / constrained_intra=0 / bframes=5 / b_pyramid=2 / b_adapt=2 / b_bias=0 / direct=3 / weightb=1 / open_gop=0 / weightp=2 / keyint=250 / keyint_min=23 / scenecut=40 / intra_refresh=0 / rc_lookahead=50 / rc=crf / mbtree=1 / crf=12.0 / qcomp=0.60 / qpmin=0 / qpmax=69 / qpstep=4 / ip_ratio=1.40 / aq=1:0.60
  26. Default                                  : Yes
  27. Forced                                   : No
  28.  
  29. Audio #1
  30. ID                                       : 2
  31. Format                                   : DTS
  32. Format/Info                              : Digital Theater Systems
  33. Format profile                           : MA / Core
  34. Codec ID                                 : A_DTS
  35. Duration                                 : 1 h 26 min
  36. Bit rate mode                            : Variable / Constant
  37. Bit rate                                 : 2 467 kb/s / 1 509 kb/s
  38. Channel(s)                               : 6 channels
  39. Channel positions                        : Front: L C R, Side: L R, LFE
  40. Sampling rate                            : 48.0 kHz
  41. Frame rate                               : 93.750 FPS (512 SPF)
  42. Bit depth                                : 24 bits
  43. Compression mode                         : Lossless / Lossy
  44. Stream size                              : 1.48 GiB (11%)
  45. Title                                    : Suicide.Squad.Hell.to.Pay.2018.2160p.BluRay.x264.8bit.SDR.DTS-HD.MA.5.1-SWTYBLZ
  46. Language                                 : English
  47. Default                                  : Yes
  48. Forced                                   : No
  49.  
  50. Audio #2
  51. ID                                       : 3
  52. Format                                   : AC-3
  53. Format/Info                              : Audio Coding 3
  54. Codec ID                                 : A_AC3
  55. Duration                                 : 1 h 26 min
  56. Bit rate mode                            : Constant
  57. Bit rate                                 : 640 kb/s
  58. Channel(s)                               : 6 channels
  59. Channel positions                        : Front: L C R, Side: L R, LFE
  60. Sampling rate                            : 48.0 kHz
  61. Frame rate                               : 31.250 FPS (1536 SPF)
  62. Bit depth                                : 16 bits
  63. Compression mode                         : Lossy
  64. Stream size                              : 394 MiB (3%)
  65. Title                                    : Suicide.Squad.Hell.to.Pay.2018.2160p.BluRay.x264.8bit.SDR.DTS-HD.MA.5.1-SWTYBLZ
  66. Language                                 : English
  67. Service kind                             : Complete Main
  68. Default                                  : No
  69. Forced                                   : No
  70.  
  71. Text #1
  72. ID                                       : 4
  73. Format                                   : UTF-8
  74. Codec ID                                 : S_TEXT/UTF8
  75. Codec ID/Info                            : UTF-8 Plain Text
  76. Duration                                 : 1 h 21 min
  77. Bit rate                                 : 46 b/s
  78. Count of elements                        : 838
  79. Stream size                              : 27.5 KiB (0%)
  80. Title                                    : English-SRT
  81. Language                                 : English
  82. Default                                  : Yes
  83. Forced                                   : No
  84.  
  85. Text #2
  86. ID                                       : 5
  87. Format                                   : PGS
  88. Muxing mode                              : zlib
  89. Codec ID                                 : S_HDMV/PGS
  90. Codec ID/Info                            : Picture based subtitle format used on BDs/HD-DVDs
  91. Duration                                 : 1 h 25 min
  92. Bit rate                                 : 29.8 kb/s
  93. Count of elements                        : 2110
  94. Stream size                              : 18.3 MiB (0%)
  95. Title                                    : English-PGS
  96. Language                                 : English
  97. Default                                  : No
  98. Forced                                   : No
  99.  
  100. Text #3
  101. ID                                       : 6
  102. Format                                   : PGS
  103. Muxing mode                              : zlib
  104. Codec ID                                 : S_HDMV/PGS
  105. Codec ID/Info                            : Picture based subtitle format used on BDs/HD-DVDs
  106. Duration                                 : 1 h 25 min
  107. Bit rate                                 : 26.7 kb/s
  108. Count of elements                        : 1700
  109. Stream size                              : 16.4 MiB (0%)
  110. Title                                    : French-PGS
  111. Language                                 : French
  112. Default                                  : No
  113. Forced                                   : No
  114.  
  115. Text #4
  116. ID                                       : 7
  117. Format                                   : PGS
  118. Muxing mode                              : zlib
  119. Codec ID                                 : S_HDMV/PGS
  120. Codec ID/Info                            : Picture based subtitle format used on BDs/HD-DVDs
  121. Duration                                 : 1 h 25 min
  122. Bit rate                                 : 26.0 kb/s
  123. Count of elements                        : 1720
  124. Stream size                              : 15.9 MiB (0%)
  125. Title                                    : Spanish-PGS
  126. Language                                 : Spanish
  127. Default                                  : No
  128. Forced                                   : No
  129.  
  130. Menu
  131. 00:00:00.000                             : en:Chapter 1
  132. 00:10:21.621                             : en:Chapter 2
  133. 00:19:57.321                             : en:Chapter 3
  134. 00:35:58.823                             : en:Chapter 4
  135. 00:48:13.473                             : en:Chapter 5
  136. 00:55:38.293                             : en:Chapter 6
  137. 01:01:51.874                             : en:Chapter 7
  138. 01:15:39.117                             : en:Chapter 8
  139. 01:22:49.047                             : en:Chapter 9

部分内容需要登录后才能查看。登录












电影,电视剧,字幕下载软件地址:http://www.banyungong.org/magnetm/706d600a73684616a3d4d3145dc4ec04.html




还没有人发表评论哦~您要说点什么吗?

快捷评论:

 
 登录后可评论资源 ^0^ 点我登录