2019东方卫视跨年演唱会/梦圆东方2019东方卫视跨年盛典[HD1080.MPEG-4]6.92GB[百度]

发布人: 匿名  
类型:综艺  大陆综艺
[2018][真人秀]
大小:6.92 GB
资源得分:9.5  / 该工友平均得分:  
 
 
 

 

2019东方卫视跨年演唱会嘉宾名单
黄子韬、李健、唐嫣、罗晋、林忆莲、周笔畅、杨宗纬、丁当、费玉清、蔡琴、李克勤、黄英、佘诗曼、吴谨言、聂远、许凯、靳东、蔡徐坤、邓伦、王凯、白宇、金瀚、张韶涵......(持续更新)
  嘉宾阵容海报:
黄子韬

2019东方卫视跨年演唱会
  音乐路上不忘初心,个性姿态霸气控场,去年许下 Promise ,今年继续创造奇迹!2019,韬声依旧,12月31日晚19:30。和黄子韬一起燃情跨年!
李健

2019东方卫视跨年演唱会
  风吹麦浪,似水流年;一生有李,情暖东方。他是音乐诗人李健,12月31日晚19:30分,梦圆东方2019东方卫视跨年盛典,他把经历写成歌,唱给你听。
唐嫣、罗晋

2019东方卫视跨年演唱会
  嫣然花开,爱晋东方。TA们是超甜CP唐嫣、罗晋!12月31日晚19:30,梦圆东方2019东方卫视跨年盛典,携手撒糖,高甜预警,甜到你心底~
林忆莲


2019东方卫视跨年演唱会
  温柔纯粹,婉转铿锵;情真忆挚,东方莲乐。她就是全能唱将林忆莲!12月31日晚19:30,梦圆东方2019东方卫视跨年盛典,深情开唱,你的耳朵准备好了吗?
周笔畅

2019东方卫视跨年演唱会
  天籁笔声,畅响东方;音乐至上,耀世传唱。她是live女王周笔畅!12月31日晚19:30,梦圆东方2019东方卫视跨年盛典新天地分会场,穿越人海,用最温暖的歌声拥抱最美的时光!
杨宗纬

2019东方卫视跨年演唱会
  肆意潇洒,细腻柔情,百变歌王,宗情东方。他是“催泪歌神”杨宗纬!12月31日晚19:30,梦圆东方2019东方卫视跨年盛典新天地分会场,听他浅吟低唱,赴一场音乐盛约!
丁当

2019东方卫视跨年演唱会
  花开正当时,东方明月升,气场全开是她,温柔深情也是她,她就是丁当!12月31日晚19:30,梦圆方2019东方卫视跨年盛典新天地分会场,期待她巨大的音乐能量碰撞出无限可能!
费玉清

2019东方卫视跨年演唱会
  陌上人如玉,东方缭清音;跨年之缘,已结七年,他就是我们的老朋友小哥费玉清!12月31日晚19:30,圆梦东方2019东方卫视跨年盛典,小哥驾到,用歌声陪你跨年!
蔡琴

2019东方卫视跨年演唱会
  琴音绕梁,魂动东方;典雅情深,风华绝代;她像一首散文诗,也似一幅水墨画,她就是歌手蔡琴!12月31日晚19:30,梦圆东方2019东方卫视跨年盛典,时光如酒,恰似她的温柔。
李克勤

2019东方卫视跨年演唱会
  月半勤歌,东方华夜;曲风多转,直击心灵,他就是“零瑕疵”歌手李克勤!12月31日晚19:30,梦圆东方2019东方卫视跨年盛典,唱响时代金曲,梦回纯真年代!
黄英

2019东方卫视跨年演唱会
  东方俏英,婉转高亢,她是翱翔世界的东方夜莺黄英!12月31日晚19:30,梦圆东方2019东方卫视跨年盛典,聆听歌者的激情,用艺术开启新的一年!
佘诗曼、吴谨言、聂远、许凯

  看《延禧》传奇,笑得失荣枯。佘诗曼、吴谨言、聂远、许凯加盟《梦圆东方·2019东方卫视跨年盛典》。12月31日19:30,“那拉皇后”、“大猪蹄子”、“璎珞娘娘”、“富察富恒”都来啦!
靳东




  儒雅睿智,姿态天成,型格东方,永无止靳。他是明楼,是庄恕,是程皓,也是贺涵,他能用眼睛说话,塑造一个又一个饱满鲜明的角色!他就是演员靳东!12月31日晚19:30,梦圆东方2019东方卫视跨年盛典,精彩来袭,“靳”请期待!
蔡徐坤

  C位出道,霸气不羁;赤子之心,坤耀东方,他是唱作歌手蔡徐坤!12月31日晚19:30,梦圆东方2019东方卫视跨年盛典,舞台王者音浪席卷全场,你们准备好了吗?
邓伦

  清新俊逸,温文尔雅,他是治愈系暖男,也是实力派演员,他就是邓伦!灼灼东方,无与伦比,12月31日晚19:30 ,梦圆东方2019东方卫视跨年盛典,最浪漫的跨年夜,有他和你相约!
王凯

2019东方卫视跨年演唱会
  “低音炮”的独特嗓音配上帅气忧郁的脸庞,王凯的演唱每次都会给粉丝们带来惊喜。今年的东方卫视跨年盛典,王凯将继续用他深情的歌喉打动每一位观众。
白宇

2019东方卫视跨年演唱会
  2018年备受关注的实力派男演员白宇,硬朗帅气的外形和踏实谦虚的性格,让他圈粉无数。今年东方卫视跨年盛典将为首次加盟的白宇打造一个独特的舞台,通过热门的歌曲和创意的互动凸显他西安人的特点。
金瀚

2019东方卫视跨年演唱会
  实力偶像金瀚,是演艺圈内正炙手可热的优质演员。此次加入东方卫视跨年盛典,这位演技和颜值都在线的潜力新生,又会带来怎样惊喜的表演?敬请期待!
张韶涵

2019东方卫视跨年演唱会
  在面对好运时每个人都可以意气风发,但是面对低谷时却不是每个人都能永不言弃。而张韶涵用自己的坚持和态度,在挫折和低谷中绽放了自己。那个有着清透声音,动人嗓音的女孩,从未离开。有着“音乐天使”之称的张韶涵又会带来怎样温暖细腻的音乐呢?让我们拭目以待!
节目单:






















General
Complete name                  : 东方卫视2019跨年演唱会-国语1080P.mp4
Format                         : MPEG-4
Format profile                 : Base Media
Codec ID                       : isom (isom/iso2/avc1/mp41)
File size                      : 6.93 GiB
Duration                       : 4 h 24 min
Overall bit rate mode          : Constant
Overall bit rate               : 3 744 kb/s
Writing application            : Lavf57.41.100


Video
ID                             : 1
Format                         : AVC
Format/Info                    : Advanced Video Codec
Format profile                 : [email protected]
Format settings                : CABAC / 2 Ref Frames
Format settings, CABAC         : Yes
Format settings, ReFrames      : 2 frames
Format settings, GOP           : M=3, N=50
Codec ID                       : avc1
Codec ID/Info                  : Advanced Video Coding
Duration                       : 4 h 24 min
Bit rate mode                  : Constant
Bit rate                       : 3 584 kb/s
Width                          : 1 920 pixels
Height                         : 1 080 pixels
Display aspect ratio           : 16:9
Frame rate mode                : Constant
Frame rate                     : 25.000 FPS
Color space                    : YUV
Chroma subsampling             : 4:2:0
Bit depth                      : 8 bits
Scan type                      : Progressive
Bits/(Pixel*Frame)             : 0.069
Stream size                    : 6.63 GiB (96%)
Codec configuration box        : avcC


Audio
ID                             : 2
Format                         : AAC LC
Format/Info                    : Advanced Audio Codec Low Complexity
Codec ID                       : mp4a-40-2
Duration                       : 4 h 24 min
Bit rate mode                  : Constant
Bit rate                       : 151 kb/s
Channel(s)                     : 2 channels
Channel layout                 : L R
Sampling rate                  : 44.1 kHz
Frame rate                     : 43.066 FPS (1024 SPF)
Compression mode               : Lossy
Stream size                    : 287 MiB (4%)
Default                        : Yes
Alternate group                : 1


部分内容需要登录后才能查看。登录












电影,电视剧,字幕下载软件地址:http://www.banyungong.org/magnetm/706d600a73684616a3d4d3145dc4ec04.html




回复人内容
shueiping (准工友) 东方卫视谢谢分享 感谢
muyilang (准工友) 找遍整个互联网没找到,没想到在这儿找到了,十分感谢!
2112711 (准工友) 感谢楼主分享!
RENRENWANG (准工友) 感谢楼主分享!
go6326 (准工友) 感谢楼主分享!
金城江仔8989 (准工友) 找遍整个互联网没找到,没想到在这儿找到了,十分感谢!

快捷评论:

 
 登录后可评论资源 ^0^ 点我登录