2016.08.08 奥运会小组赛 中国vs.意大利 [CCTV-5 国语][1080i/TS/5.61G][BD]

发布人: yalocovic  初级工友
类型:体育  其它
[2016][大陆]
大小:5.61 GB
资源得分:9.0  / 该工友平均得分:9.1  
 
 
 

General
ID : 25 (0x19)
Complete name : 20160808WV-CHNvsITA.[0].ts
Format : MPEG-TS
File size : 5.61 GiB
Duration : 1h 14mn
Overall bit rate mode : Variable
Overall bit rate : 10.7 Mbps

Video
ID : 258 (0x102)
Menu ID : 1197 (0x4AD)
Format : AVC
Format/Info : Advanced Video Codec
Format profile : [email protected]
Format settings, CABAC : Yes
Format settings, ReFrames : 2 frames
Format settings, GOP : M=3, N=15
Codec ID : 27
Duration : 36mn 17s
Bit rate mode : Constant
Bit rate : 10 000 Kbps
Maximum bit rate : 11.5 Mbps
Width : 1 920 pixels
Height : 1 080 pixels
Display aspect ratio : 16:9
Frame rate : 25.000 fps
Color space : YUV
Chroma subsampling : 4:2:0
Bit depth : 8 bits
Scan type : Interlaced
Scan type, store method : Separated fields
Scan order : Top Field First
Bits/(Pixel*Frame) : 0.193
Stream size : 2.52 GiB (45%)
Color range : Limited

Audio
ID : 514 (0x202)
Menu ID : 1197 (0x4AD)
Format : MPEG Audio
Format version : Version 1
Format profile : Layer 2
Codec ID : 3
Duration : 1h 15mn
Bit rate mode : Constant
Bit rate : 256 Kbps
Channel(s) : 2 channels
Sampling rate : 48.0 KHz
Compression mode : Lossy
Stream size : 138 MiB (2%)

Menu
ID : 770 (0x302)
Menu ID : 1197 (0x4AD)
Duration : 1h 14mn
List : 258 (0x102) (AVC) / 514 (0x202) (MPEG Audio)

Maximum bit rate : 11948400


【注明】:本视频来自哇哈体育的注册用户友情录制感谢DDSTK的辛苦录制 转载请注明出处!



部分内容需要登录后才能查看。登录
















回复人内容
520131410 [04.11][CCTV综合 人与自然之两大家族 全2集 ][TS][1080I][5.19G][国语无字][BD]
tdybb 回顾一下小组费,谢谢分享!
18760008321 非常喜欢这场比赛
小陈陈 谢谢分享.....
qiuming 谢谢楼主的分享!
lyg19670711 错过这场比赛,只能下载回看了……
suzukiami 楼主的大恩大德,小的永记于心!
aaa111 非常感谢 终于等到了 太棒了
pchw777 这场比赛打得很过瘾!
blackeraser 其实我一直觉得楼主的品味不错!
blackeraser 其实我一直觉得楼主的品味不错!
flybeyond 非常喜欢这场比赛
移民乌托邦 楼主的大恩大德,小的永记于心!
tppd 感谢辛苦录制
henry2008 感谢辛苦录制
一秀正道 没看过小组赛 来下载 。
pcming 正需要,支持楼主大人了!
nj糖果 (准工友) 感谢楼主分享!

快捷评论:

 
 登录后可评论资源 ^0^ 点我登录