人体乱码 Errors.of.the.Human.Body.2012.1080p.BluRay.x264-NOSCREENS 7.65GB

发布人: Sumbrella  高级工友
类型:电影  1080P电影
[2012][欧美][惊悚]
大小:7.65 GB
资源得分:暂无评分  / 该工友平均得分:9.4  
 
 
 




◎译  名 人体乱码/人体谬误/人类身体之错

◎片  名 Errors of the Human Body

◎年  代 2012

◎国  家 德国

◎类  别 剧情 / 科幻 / 惊悚

◎语  言 英语

◎上映日期 2012年7月28日(加拿大)

◎IMDB评分 5.3/10 from 2,030 users

◎IMDB链接 https://movie.douban.com/subject/5995514/

◎片  长 101分钟

◎导  演 埃伦·希恩 Eron Sheean

◎编  剧 埃伦·希恩 Eron Sheean/谢恩·丹尼尔森 Shane Danielsen

◎主  演 迈克尔·艾克朗德 Michael Eklund

卡洛琳·赫弗斯 Karoline Herfurth

托马斯·勒马尔奎斯 Tómas Lemarquis

里克·梅奥尔 Rik Mayall

Caroline Gerdolle

西耶娜·法拉尔 Sienna Farall
◎简  介 

德国基因改造科学家Geoff Burton博士的实验室研发出一种致命病毒,让自己无意间成为首位受害者,酿造一场无法收拾的悲剧。。。。。。

Errors.of.the.Human.Body.2012.1080p.BluRay.x264-NOSCREENS

Video
ID : 1
Format : AVC
Format/Info : Advanced Video Codec
Format profile : [email protected]
Format settings, CABAC : Yes
Format settings, ReFrames : 4 frames
Codec ID : V_MPEG4/ISO/AVC
Duration : 1h 41mn
Bit rate : 9 272 Kbps
Width : 1 920 pixels
Height : 1 040 pixels
Display aspect ratio : 1.85:1
Frame rate mode : Constant
Frame rate : 24.000 fps
Color space : YUV
Chroma subsampling : 4:2:0
Bit depth : 8 bits
Scan type : Progressive
Bits/(Pixel*Frame) : 0.193
Stream size : 6.43 GiB (84%)
Title : noscr-errors-1080p
Writing library : x264 core 138 r2358 9e941d1
Encoding settings : cabac=1 / ref=4 / deblock=1:0:0 / analyse=0x3:0x113 / me=umh / subme=7 / psy=1 / psy_rd=1.00:0.00 / mixed_ref=1 / me_range=16 / chroma_me=1 / trellis=1 / 8x8dct=1 / cqm=0 / deadzone=21,11 / fast_pskip=0 / chroma_qp_offset=-2 / threads=18 / lookahead_threads=3 / sliced_threads=0 / nr=0 / decimate=1 / interlaced=0 / bluray_compat=0 / constrained_intra=0 / bframes=3 / b_pyramid=2 / b_adapt=1 / b_bias=0 / direct=1 / weightb=1 / open_gop=0 / weightp=2 / keyint=250 / keyint_min=24 / scenecut=40 / intra_refresh=0 / rc_lookahead=40 / rc=2pass / mbtree=1 / bitrate=9272 / ratetol=1.0 / qcomp=0.60 / qpmin=0 / qpmax=69 / qpstep=4 / cplxblur=20.0 / qblur=0.5 / ip_ratio=1.40 / aq=1:1.00
Language : English
Default : Yes
Forced : No

Audio
ID : 2
Format : DTS
Format/Info : Digital Theater Systems
Mode : 16
Format settings, Endianness : Big
Codec ID : A_DTS
Duration : 1h 41mn
Bit rate mode : Constant
Bit rate : 1 509 Kbps
Channel(s) : 6 channels
Channel positions : Front: L C R, Side: L R, LFE
Sampling rate : 48.0 KHz
Frame rate : 93.750 fps (512 spf)
Bit depth : 24 bits
Compression mode : Lossy
Stream size : 1.07 GiB (14%)
Title : DTS
Language : English
Default : Yes
Forced : No

Text
ID : 3
Format : UTF-8
Codec ID : S_TEXT/UTF8
Codec ID/Info : UTF-8 Plain Text
Title : Forced
Language : English
Default : Yes
Forced : No

Menu
00:00:00.000 : en:00:00:00.000
00:12:05.458 : en:00:12:05.458
00:18:46.250 : en:00:18:46.250
00:29:29.292 : en:00:29:29.292
00:36:40.375 : en:00:36:40.375
00:45:40.917 : en:00:45:40.917
01:00:01.125 : en:01:00:01.125
01:08:02.500 : en:01:08:02.500
01:15:40.083 : en:01:15:40.083
01:23:02.958 : en:01:23:02.958
01:31:49.000 : en:01:31:49.000
01:37:30.750 : en:01:37:30.750




部分内容需要登录后才能查看。登录
















还没有人发表评论哦~您要说点什么吗?

快捷评论:

 
 登录后可评论资源 ^0^ 点我登录