白夜 White.Night.2012.1080p.BluRay.x264-GiMCHi 9.83GB

发布人: Sumbrella  高级工友
类型:电影  1080P电影
[2012][韩国][剧情]
大小:9.83 GB
资源得分:暂无评分  / 该工友平均得分:9.4  
 
 
 




◎译  名 白夜 / 白夜冶游

◎片  名 백야 /White Night/ One Night and Two Days

◎年  代 2013

◎产  地 韩国

◎类  别 剧情/爱情

◎语  言 韩语

◎上映日期 2012-11-15(韩国)

◎IMDb评分 6.5//10 from 249 users

◎IMDb链接 https://www.imdb.com/title/tt2753288/

◎片  长 75分钟

◎导  演 李宋喜一 Hee-il Leesong

◎编  剧 李宋喜一 Hee-il Leesong

◎主  演 元泰熙 Tea-hee Won / 李伊庚 Yi-Kyeong Lee

◎简  介

汉莎航空的空少姜宇奎(元泰熙 饰)惯于做空中飞人,首尔速递员李泰俊(李利景 饰)终日在街头奔波送件。两年前宇奎离开首尔后就再没回来过,如今因为工作关系必须在故地重留一晚。寒风凛冽的街头,冬夜里一片寂静。宇奎通过互联网成功的搭讪到泰俊,他打算将后者发展成为一夜情对象,然而两个同样寂寞的人由性到爱衍生出了更多情绪。两年前一桩恐同暴力永久改变了宇奎的人生,而在这个夜晚,当他们来到当年的肇事酒吧,仿佛一切又回到了原点......
  
自《不后悔》后,李宋熙日已成为韩国独立电影界颇受争议的话题人物。他的取材无不涉及同性爱,他镜头下的男人充满了爱欲纠缠和奇妙的情感构架。《白夜》是李宋熙日的最新都市暗夜诗,导演想告诉人们,不是所有人都能过上梦想的生活和拥抱爱,但在转瞬即逝前也许两个人可以相处得简简单单。《白夜》与《忽然之间,去年夏天》、《南行》一同构成李宋熙日的“两天一夜”三部曲。

◎获奖情况

第63届柏林国际电影节 全景单元 入围

White.Night.2012.1080p.BluRay.x264-GiMCHi

Video
ID : 1
Format : AVC
Format/Info : Advanced Video Codec
Format profile : [email protected]
Format settings : CABAC / 5 Ref Frames
Format settings, CABAC : Yes
Format settings, ReFrames : 5 frames
Codec ID : V_MPEG4/ISO/AVC
Duration : 2 h 15 min
Bit rate : 8 849 kb/s
Width : 1 920 pixels
Height : 816 pixels
Display aspect ratio : 2.35:1
Frame rate mode : Constant
Frame rate : 23.976 (24000/1001) FPS
Color space : YUV
Chroma subsampling : 4:2:0
Bit depth : 8 bits
Scan type : Progressive
Bits/(Pixel*Frame) : 0.236
Stream size : 8.21 GiB (83%)
Writing library : x264 core 142 r2431 ac76440
Encoding settings : cabac=1 / ref=5 / deblock=1:0:0 / analyse=0x3:0x133 / me=umh / subme=7 / psy=1 / psy_rd=1.00:0.00 / mixed_ref=1 / me_range=16 / chroma_me=1 / trellis=1 / 8x8dct=1 / cqm=0 / deadzone=21,11 / fast_pskip=0 / chroma_qp_offset=-2 / threads=12 / lookahead_threads=2 / sliced_threads=0 / nr=0 / decimate=1 / interlaced=0 / bluray_compat=0 / constrained_intra=0 / bframes=3 / b_pyramid=2 / b_adapt=2 / b_bias=0 / direct=3 / weightb=1 / open_gop=0 / weightp=2 / keyint=240 / keyint_min=23 / scenecut=40 / intra_refresh=0 / rc_lookahead=50 / rc=2pass / mbtree=1 / bitrate=8849 / ratetol=1.0 / qcomp=0.60 / qpmin=0 / qpmax=69 / qpstep=4 / cplxblur=20.0 / qblur=0.5 / ip_ratio=1.40 / aq=1:1.00
Language : English
Default : Yes
Forced : No

Audio
ID : 2
Format : DTS
Format/Info : Digital Theater Systems
Codec ID : A_DTS
Duration : 2 h 15 min
Bit rate mode : Constant
Bit rate : 1 509 kb/s
Channel(s) : 6 channels
Channel layout : C L R Ls Rs LFE
Sampling rate : 48.0 kHz
Frame rate : 93.750 FPS (512 SPF)
Bit depth : 24 bits
Compression mode : Lossy
Stream size : 1.43 GiB (15%)
Language : Korean
Default : Yes
Forced : No

Text
ID : 3
Format : UTF-8
Codec ID : S_TEXT/UTF8
Codec ID/Info : UTF-8 Plain Text
Language : English
Default : Yes
Forced : No

Menu
00:00:00.000 : en:00:00:00.000
00:05:13.021 : en:00:05:13.021
00:10:00.642 : en:00:10:00.642
00:14:18.149 : en:00:14:18.149
00:19:46.936 : en:00:19:46.936
00:27:13.090 : en:00:27:13.090
00:33:34.012 : en:00:33:34.012
00:37:48.391 : en:00:37:48.391
00:43:09.754 : en:00:43:09.754
00:50:15.971 : en:00:50:15.971
00:54:51.413 : en:00:54:51.413
00:59:33.570 : en:00:59:33.570
01:05:41.771 : en:01:05:41.771
01:11:45.218 : en:01:11:45.218
01:19:15.167 : en:01:19:15.167
01:25:32.252 : en:01:25:32.252
01:33:26.559 : en:01:33:26.559
01:41:51.814 : en:01:41:51.814
01:47:42.164 : en:01:47:42.164
01:52:52.140 : en:01:52:52.140
01:57:40.804 : en:01:57:40.804
02:03:35.325 : en:02:03:35.325
02:11:12.823 : en:02:11:12.823
02:12:42.746 : en:02:12:42.746




部分内容需要登录后才能查看。登录
















还没有人发表评论哦~您要说点什么吗?

快捷评论:

 
 登录后可评论资源 ^0^ 点我登录