纪录片:华人移民史 渡东瀛 全集 1080i HDTV-AREA11[/百度/E05]

发布人: byg  
类型:其它  纪录片
[2014]
大小:2.6 GB
资源得分:9.0  / 该工友平均得分:9.0  
 
 
 

資源名稱: 華人移民史 渡東瀛 / 华人移民史 渡东瀛 / Roots Old and New Japan
地區: 香港
類型: 記錄片
格式: 1080i/p
電視台: RTHK31
網盤: 百度/MEGA
製作人員: 影片: 愛睡懶覺@mkc

 

簡介
逢星期六晚 播放一集 / 粵語 / 繁中字幕
  
中日兩國,一衣帶水,既親且疏。 說是親,乃因自古以來,中日交往甚密。 說是疏,乃因連連炮火為兩個民族留下不可磨滅的傷痕。 千絲萬縷的瓜葛,就如兩國之間的浩瀚波濤,暗湧處處,居於日本的華人又如何安身立命?

各集內容
RTHK31.華人移民史.渡東瀛.E01.華人與沖繩.1080i.HDTV.H264-AREA11.ts
RTHK31.華人移民史.渡東瀛.E02.中華街.1080i.HDTV.H264-AREA11.ts
RTHK31.華人移民史.渡東瀛.E03.日本遺孤.1080i.HDTV.H264-AREA11.ts
RTHK31.華人移民史.渡東瀛.E04.八十年代中國留學生潮.1080i.HDTV.H264-AREA11.ts
RTHK31.華人移民史.渡東瀛.E05.傑出華人在日本.1080i.HDTV.H264-AREA11.ts



 

轉載必須包括此訊息,謝謝合作!
AREA11精品高清
RTHK31.華人移民史.渡東瀛.1080i.HDTV.H264-AREA11
影片解析度:1920x1080 ts封裝格式
影片大小:2.6G
影片長度:約45分鐘
影片音軌:AC3 2 聲道@128k
影片編碼:AVC RAW
影片碼率:Overall bit rate : 8 535 Kbps
影片字幕:粵語 繁中字幕
影片壓制:[email protected]
制作出品:AREA11高清論壇

 

General #1
    ID : 1 (0x1)
    Complete name : G:\1\RTHK31.華人移民史.渡東瀛.E01.華人與沖繩.1080i.HDTV.H264-AREA11.ts
    Format : MPEG-TS
    File size : 2.63 GiB
    Duration : 44mn 7s
    Overall bit rate mode : Variable
    Overall bit rate : 8 535 Kbps
  Video #311
    ID : 311 (0x137)
    Menu ID : 31 (0x1F)
    Format : AVC
    Format/Info : Advanced Video Codec
    Format profile : [email protected]
    Format settings, CABAC : Yes
    Format settings, ReFrames : 4 frames
    Codec ID : 27
    Duration : 44mn 7s
    Bit rate : 7 855 Kbps
    Width : 1 920 pixels
    Height : 1 080 pixels
    Display aspect ratio : 16:9
    Frame rate : 25.000 fps
    Color space : YUV
    Chroma subsampling : 4:2:0
    Bit depth : 8 bits
    Scan type : MBAFF
    Bits/(Pixel*Frame) : 0.152
    Stream size : 2.42 GiB (92%)
    Color primaries : BT.709
    Transfer characteristics : BT.709
    Matrix coefficients : BT.709
  Audio #312
    ID : 312 (0x138)
    Menu ID : 31 (0x1F)
    Format : AC-3
    Format/Info : Audio Coding 3
    Mode extension : CM (complete main)
    Format settings, Endianness : Big
    Codec ID : 6
    Duration : 44mn 8s
    Bit rate mode : Constant
    Bit rate : 128 Kbps
    Channel count : 2 channels
    Channel positions : Front: L R
    Sampling rate : 48.0 KHz
    Bit depth : 16 bits
    Compression mode : Lossy
    Delay relative to video : -51ms
    Stream size : 40.4 MiB (1%)
  Audio #313
    ID : 313 (0x139)
    Menu ID : 31 (0x1F)
    Format : AC-3
    Format/Info : Audio Coding 3
    Mode extension : CM (complete main)
    Format settings, Endianness : Big
    Codec ID : 6
    Duration : 44mn 8s
    Bit rate mode : Constant
    Bit rate : 128 Kbps
    Channel count : 2 channels
    Channel positions : Front: L R
    Sampling rate : 48.0 KHz
    Bit depth : 16 bits
    Compression mode : Lossy
    Delay relative to video : -19ms
    Stream size : 40.4 MiB (1%)
  Menu #310
    ID : 310 (0x136)
    Menu ID : 31 (0x1F)
    Duration : 44mn 7s
    List : 311 (0x137) (AVC) / 312 (0x138) (AC-3) / 313 (0x139) (AC-3)
    UTC 2014-01-25 11:30:00 : en:Roots Old and New, Stories of Chinese Emigrants - Japan / en: /  /  / 01:00:00 / Running
    UTC 2014-01-25 12:30:00 : en:Arts On Air: The Flying Dutchman / en: /  /  / 02:30:00 / Not running

解压密码:


部分内容需要登录后才能查看。登录












电影,电视剧,字幕下载软件地址:http://www.banyungong.org/magnetm/706d600a73684616a3d4d3145dc4ec04.html




回复人内容
skywoodlin 楼主太好了,感谢分享。
booker 搂住,真是个好人,让俺看看
lyxhh 楼主太好了,感谢分享。
dyah123 感谢分享。
stefanzxf 搂住,真是个好人,让俺看看
stefanzxf 楼主太好了,感谢分享。
箫韵晨曦 感谢分享
2698337570 由衷感谢搂住,新手入门认真学习!
lccrf 认真学习
sgznwn XX谢谢lz谢谢lz
dftyh004 非常值得珍藏的好片子
jayuay 看看都讲述些什么
mikelee118 thankssssssssssss
laokd thanks thanks
everyseason 很好的资源,学习受教了~
yk11717 谢谢分享!学习一下历史,为了中日友好!
guosetianxiang2014 非常感谢分享,值得学习的一段历史
hfzd 由衷感谢搂住,真是个好人.
贱狗在飞啊 現在也有回覆可見了?謝謝樓主
byg 其实一直都有,只是不经常用。

快捷评论:

 
 登录后可评论资源 ^0^ 点我登录