[世界杯][克罗地亚vs英格兰 Croatia.Vs.England][2160p.WEBRip.x265.10bit.HDR.AAC2.0-NOGRP][29.09GB]

发布人: 匿名  
类型:体育  足球
[2018][欧美]
大小:29.09 GB
资源得分:暂无评分  / 该工友平均得分:  
 
 
 

  1. Video
  2. ID : 1
  3. Format : HEVC
  4. Format/Info : High Efficiency Video Coding
  5. Commercial name : HDR10
  6. Format profile : Main [email protected]@Main
  7. Codec ID : V_MPEGH/ISO/HEVC
  8. Duration : 3 h 49 min
  9. Bit rate : 18.0 Mb/s
  10. Width : 3 840 pixels
  11. Height : 2 160 pixels
  12. Display aspect ratio : 16:9
  13. Frame rate mode : Constant
  14. Frame rate : 50.000 FPS
  15. Color space : YUV
  16. Chroma subsampling : 4:2:0
  17. Bit depth : 10 bits
  18. Bits/(Pixel*Frame) : 0.043
  19. Stream size : 28.9 GiB (99%)
  20. Default : Yes
  21. Forced : No
  22. Color range : Limited
  23. Color primaries : BT.2020
  24. Transfer characteristics : PQ
  25. Matrix coefficients : BT.2020 non-constant
  26. Mastering display color primaries : R: x=0.000000 y=0.000000, G: x=0.000000 y=0.000000, B: x=0.000000 y=0.000000, White point: x=0.000000 y=0.000000
  27. Mastering display luminance : min: 0.0000 cd/m2, max: 0 cd/m2
  28.  
  29. Audio
  30. ID : 2
  31. Format : AAC
  32. Format/Info : Advanced Audio Codec
  33. Format profile : LC
  34. Codec ID : A_AAC-2
  35. Duration : 3 h 49 min
  36. Bit rate : 128 kb/s
  37. Channel(s) : 2 channels
  38. Channel positions : Front: L R
  39. Sampling rate : 48.0 kHz
  40. Frame rate : 46.875 FPS (1024 SPF)
  41. Compression mode : Lossy
  42. Stream size : 211 MiB (1%)
  43. Default : Yes
  44. Forced : No
复制代码


部分内容需要登录后才能查看。登录












电影,电视剧,字幕下载软件地址:http://www.banyungong.org/magnetm/706d600a73684616a3d4d3145dc4ec04.html




回复人内容
paulhero123 (准工友) 找遍整个互联网没找到,没想到在这儿找到了,十分感谢!

快捷评论:

 
 登录后可评论资源 ^0^ 点我登录